<?xml version="1.0" standalone="no"?>
<!DOCTYPE svg PUBLIC "-//W3C//DTD SVG 1.1//EN" "http://www.w3.org/Graphics/SVG/1.1/DTD/svg11.dtd" >
<svg xmlns="http://www.w3.org/2000/svg">
<metadata>Generated by IcoMoon</metadata>
<defs>
<font id="pcomico" horiz-adv-x="1024">
<font-face units-per-em="1024" ascent="960" descent="-64" />
<missing-glyph horiz-adv-x="1024" />
<glyph unicode="&#x20;" horiz-adv-x="512" d="" />
<glyph unicode="&#xe900;" glyph-name="facebook" d="M732.16 723.21h-105.902c-33.853 0-59.208-13.885-59.208-48.947v-61.153h165.11l-13.107-165.11h-152.003v-440.32h-165.13v440.32h-110.080v165.11h110.080v105.861c0 111.288 58.573 169.349 190.464 169.349h139.776z" />
<glyph unicode="&#xe901;" glyph-name="pinterest" d="M512-23.040c-0.13 0-0.284 0-0.438 0-49.63 0-97.466 7.683-142.383 21.924l3.332-0.912c19.19 31.273 47.882 82.555 58.532 123.535l29.389 111.944c15.36-29.327 60.232-54.067 107.909-54.067 142.152 0 244.47 130.662 244.47 292.987 0 155.648-126.976 272.036-290.447 272.036-203.244 0-311.296-136.438-311.296-285.041 0-69.12 36.864-155.095 95.621-182.538 8.888-4.096 13.66-2.294 15.77 6.308l13.087 53.412c0.335 1.15 0.528 2.471 0.528 3.837 0 3.754-1.455 7.168-3.832 9.708l0.007-0.008c-19.497 23.552-35.041 67.011-35.041 107.459 0 103.916 78.664 204.431 212.664 204.431 115.712 0 196.731-78.848 196.731-191.652 0-127.427-64.369-215.695-148.091-215.695-46.285 0-80.896 38.216-69.775 85.156 13.312 55.992 39.035 116.408 39.035 156.856 0 36.147-19.415 66.355-59.576 66.355-47.288 0-85.258-48.927-85.258-114.401 0-41.759 14.070-69.96 14.070-69.96s-46.694-197.427-55.296-234.168c-9.482-40.673-5.775-97.853-1.638-135.168-175.002 68.69-299.11 239.165-299.11 438.702 0 260.096 210.944 471.040 471.040 471.040s471.040-210.944 471.040-471.040-210.944-471.040-471.040-471.040z" />
<glyph unicode="&#xe902;" glyph-name="tiktok" d="M426.926 533.975c0-39.731 0-77.804 0-117.146-10.383-0.655-20.275-0.573-29.942-1.966-68.526-9.871-115.384-68.403-109.261-136.11 5.898-65.454 62.259-114.606 129.188-112.701 69.612 1.966 124.539 55.357 125.215 123.884 1.126 116.040 1.106 232.079 1.393 348.119 0.164 70.328 0.041 140.657 0.041 212.378 39.158 0 76.329 0 114.627 0 2.212-9.585 4.26-19.292 6.717-28.918 21.484-83.988 90.214-146.801 175.575-159.109 13.476-1.946 17.961-6.124 17.633-19.825-0.901-38.072-0.307-76.186-0.307-113.787-60.785-15.77-136.253 17.981-200.376 90.685 0-10.527 0-17.306 0-24.084 0-101.294 0.287-202.568-0.082-303.862-0.451-126.792-94.986-231.977-219.238-244.654-125.297-12.759-238.346 69.673-265.482 193.597-32.645 149.074 84.931 295.895 236.626 295.383 5.816-0.020 11.653-1.229 17.674-1.884z" />
<glyph unicode="&#xe903;" glyph-name="twitter" d="M912.159 622.244c12.431-274.678-192.389-580.936-555.008-580.936-0.194 0-0.424 0-0.653 0-110.983 0-214.324 32.72-300.902 89.041l2.138-1.304c14.035-1.777 30.275-2.791 46.751-2.791 91.834 0 176.312 31.498 243.218 84.279l-0.833-0.634c-85.103 1.657-156.743 57.466-182.002 134.319l-0.393 1.381c11.078-2.219 23.814-3.489 36.846-3.489 18.256 0 35.93 2.492 52.701 7.155l-1.38-0.328c-93.942 18.862-158.74 103.444-156.652 193.946 25.457-14.471 55.736-23.428 88.011-24.506l0.319-0.008c-52.645 35.612-86.795 95.102-86.795 162.569 0 36.163 9.812 70.035 26.918 99.099l-0.499-0.916c96.725-118.385 239.831-195.724 401.182-204.089l1.352-0.056c-28.508 122.225 64.246 239.841 190.321 239.841 0.106 0 0.232 0 0.358 0 56.016 0 106.502-23.672 142.002-61.559l0.099-0.107c46.802 9.381 88.383 25.816 125.877 48.356l-1.768-0.986c-15.148-46.025-45.494-83.568-84.983-107.562l-0.87-0.491c41.613 5.061 79.494 15.876 114.62 31.717l-2.471-0.997c-26.753-39.598-59.106-73.046-96.368-100.157l-1.137-0.788z" />
<glyph unicode="&#xe904;" glyph-name="youtube" d="M991.068 648.704c-12.472 82.412-39.506 112.046-126.976 124.928-218.235 31.949-484.454 36.25-690.565 1.905-96.461-16.077-128.84-44.339-141.312-129.249-15.012-102.093-18.739-299.213 0-414.474 11.182-68.915 42.537-113.254 139.264-121.836 191.263-17.019 489.124-17.613 659.108-2.048 118.088 10.732 149.77 57.098 160.543 126.075zM409.293 294.134v293.581l256.922-145.408z" />
<glyph unicode="&#xe905;" glyph-name="social-instagram" d="M298.667 960c-164.949 0-298.667-133.718-298.667-298.667v0-426.667c0-164.949 133.718-298.667 298.667-298.667v0h426.667c164.949 0 298.667 133.718 298.667 298.667v0 426.667c0 164.949-133.718 298.667-298.667 298.667v0zM810.667 789.333c23.564 0 42.667-19.103 42.667-42.667s-19.103-42.667-42.667-42.667c-23.564 0-42.667 19.103-42.667 42.667v0c0 23.564 19.103 42.667 42.667 42.667v0zM512 704c141.385 0 256-114.615 256-256s-114.615-256-256-256c-141.385 0-256 114.615-256 256v0c0 141.385 114.615 256 256 256v0zM512 618.667c-94.257 0-170.667-76.41-170.667-170.667s76.41-170.667 170.667-170.667c94.257 0 170.667 76.41 170.667 170.667v0c0 94.257-76.41 170.667-170.667 170.667v0z" />
<glyph unicode="&#xe906;" glyph-name="carte-cadeau" d="M363.093 552.107s-64.427 58.88-97.707 58.88c-32.519 0-58.88-26.361-58.88-58.88s26.361-58.88 58.88-58.88v0c33.28 0 97.707 58.88 97.707 58.88zM0 704v-128h130.56c11.585 64.644 67.388 113.067 134.502 113.067 0.114 0 0.229 0 0.343 0h-0.018c45.227 0 113.92-49.493 161.28-88.747v189.013h-341.333c-47.128 0-85.333-38.205-85.333-85.333v0zM202.667 245.333c-7.673 7.713-12.416 18.347-12.416 30.089 0 0.672 0.016 1.341 0.046 2.005l-0.003-0.094c0.051 11.656 4.767 22.2 12.376 29.869l-0.003-0.003 132.693 133.12c-19.915-12.855-43.734-21.426-69.345-23.845l-0.629-0.048c-0.257-0.002-0.56-0.003-0.864-0.003-52.809 0-98.658 29.795-121.656 73.491l-0.361 0.752h-142.507v-298.667c0-47.128 38.205-85.333 85.333-85.333v0h341.333v302.080l-163.84-163.413c-7.712-7.668-18.343-12.407-30.080-12.407s-22.368 4.74-30.082 12.409l0.002-0.002zM732.16 552.107c0 32.519-26.361 58.88-58.88 58.88v0c-32.427 0-97.707-58.88-97.707-58.88s65.28-58.88 97.707-58.88c32.519 0 58.88 26.361 58.88 58.88v0zM938.667 789.333h-426.667v-189.013c47.36 39.253 116.053 88.747 161.28 88.747 0.097 0 0.211 0 0.325 0 67.113 0 122.917-48.424 134.378-112.238l0.123-0.829h215.893v128c0 47.128-38.205 85.333-85.333 85.333v0zM673.28 414.72c-25.72 2.334-49.106 10.603-69.329 23.416l0.636-0.376 131.84-131.84c7.668-7.712 12.407-18.343 12.407-30.080s-4.74-22.368-12.409-30.082l0.002 0.002c-7.709-7.648-18.326-12.374-30.047-12.374-0.087 0-0.173 0-0.26 0.001h0.013c-0.073 0-0.16-0.001-0.247-0.001-11.721 0-22.338 4.726-30.049 12.377l-163.837 163.837v-302.933h426.667c47.128 0 85.333 38.205 85.333 85.333v0 298.667h-227.84c-23.058-45.388-69.4-75.946-122.88-75.947v0z" />
<glyph unicode="&#xe907;" glyph-name="click-and-collect" d="M669.867 485.12c11.383 6.631 25.056 10.545 39.642 10.545 5.601 0 11.067-0.577 16.342-1.675l-0.518 0.090-17.493 195.413c-2.7 28.285-26.289 50.245-55.030 50.347h-50.357c0 122.062-98.951 221.013-221.013 221.013s-221.013-98.951-221.013-221.013v0h-51.2c-28.852-0.080-52.557-22.009-55.447-50.108l-0.020-0.238-53.76-605.867c-0.306-2.179-0.48-4.697-0.48-7.255 0-30.398 24.642-55.040 55.040-55.040 0.169 0 0.338 0.001 0.506 0.002h612.241c-6.508 10.056-10.688 22.171-11.509 35.199l-0.011 0.214-24.32 353.28c-0.254 2.357-0.399 5.092-0.399 7.86 0 28.58 15.44 53.554 38.433 67.035l0.366 0.198zM270.933 741.12c0 61.031 49.476 110.507 110.507 110.507s110.507-49.476 110.507-110.507v0zM916.48 171.52l91.307 53.76-298.24 192.427 24.32-353.28 91.307 53.76 107.52-182.187 91.307 53.76-107.52 181.76z" />
<glyph unicode="&#xe908;" glyph-name="coffret-cadeau" d="M213.333 320h256v-384h-213.333c-23.564 0-42.667 19.103-42.667 42.667v0zM554.667 320h256v-341.333c0-23.564-19.103-42.667-42.667-42.667v0h-213.333zM715.52 789.333c13.695 17.757 21.95 40.321 21.95 64.814 0 58.91-47.756 106.667-106.667 106.667-29.811 0-56.765-12.229-76.121-31.944l-0.016-0.016c-21.569-31.712-35.159-70.411-37.102-112.152l-0.018-0.488c-1.824 42.186-15.271 80.896-37.19 113.423l0.497-0.783c-19.371 19.731-46.326 31.96-76.136 31.96-58.91 0-106.667-47.756-106.667-106.667 0-24.493 8.255-47.057 22.134-65.063l-0.185 0.249h-64c-23.564 0-42.667-19.103-42.667-42.667v0-341.333h256v341.333c0 23.564 19.103 42.667 42.667 42.667v0h2.56c0.892 0.295 1.92 0.466 2.987 0.466s2.094-0.17 3.056-0.485l-0.069 0.020c19.619-4.105 34.142-21.26 34.142-41.806 0-0.302-0.003-0.604-0.009-0.905l0.001 0.045v-341.333h256v341.333c0 23.564-19.103 42.667-42.667 42.667v0z" />
<glyph unicode="&#xe909;" glyph-name="detaxe" d="M1024 448c-0.055 74.345-47.638 137.562-114.004 160.913l-1.196 0.367c11.575 22.412 18.361 48.917 18.361 77.007 0 94.257-76.41 170.667-170.667 170.667-29.536 0-57.32-7.503-81.549-20.707l0.894 0.446c-21.353 71.606-86.61 122.92-163.852 122.92-74.25 0-137.426-47.416-160.899-113.62l-0.369-1.194c-22.412 11.575-48.917 18.361-77.007 18.361-94.257 0-170.667-76.41-170.667-170.667 0-29.536 7.503-57.32 20.707-81.549l-0.446 0.894c-71.606-21.353-122.92-86.61-122.92-163.852 0-74.25 47.416-137.426 113.62-160.899l1.194-0.369c-11.575-22.412-18.361-48.917-18.361-77.007 0-94.257 76.41-170.667 170.667-170.667 29.536 0 57.32 7.503 81.549 20.707l-0.894-0.446c21.353-71.606 86.61-122.92 163.852-122.92 74.25 0 137.426 47.416 160.899 113.62l0.369 1.194c22.412-11.575 48.917-18.361 77.007-18.361 94.257 0 170.667 76.41 170.667 170.667 0 29.536-7.503 57.32-20.707 81.549l0.446-0.894c71.765 21.214 123.249 86.507 123.307 163.833v0.007zM341.333 704c47.128 0 85.333-38.205 85.333-85.333s-38.205-85.333-85.333-85.333c-47.128 0-85.333 38.205-85.333 85.333v0c0 47.128 38.205 85.333 85.333 85.333v0zM682.667 192c-47.128 0-85.333 38.205-85.333 85.333s38.205 85.333 85.333 85.333c47.128 0 85.333-38.205 85.333-85.333v0c0-47.128-38.205-85.333-85.333-85.333v0zM755.627 631.040l-426.667-426.667c-7.733-7.795-18.45-12.621-30.293-12.621s-22.56 4.826-30.291 12.618l-0.003 0.003c-7.795 7.733-12.621 18.45-12.621 30.293s4.826 22.56 12.618 30.291l426.67 426.67c7.753 7.753 18.463 12.548 30.293 12.548 23.661 0 42.841-19.181 42.841-42.841 0-11.83-4.795-22.541-12.548-30.293v0z" />
<glyph unicode="&#xe90a;" glyph-name="espace-printemps" d="M981.333 320h-85.333c0 0.064 0 0.139 0 0.215 0 181.822-126.368 334.129-296.068 373.885l-2.599 0.513c0.212 1.41 0.333 3.038 0.333 4.693s-0.121 3.283-0.354 4.874l0.022-0.181v85.333c0 23.564-19.103 42.667-42.667 42.667v0 85.333c0 23.564-19.103 42.667-42.667 42.667s-42.667-19.103-42.667-42.667v0-85.333c-23.564 0-42.667-19.103-42.667-42.667v0-85.333c-0.212-1.41-0.333-3.038-0.333-4.693s0.121-3.283 0.354-4.874l-0.022 0.181c-172.299-40.269-298.667-192.577-298.667-374.398 0-0.076 0-0.151 0-0.227v0.012h-85.333c-23.564 0-42.667-19.103-42.667-42.667s19.103-42.667 42.667-42.667v0h938.667c23.564 0 42.667 19.103 42.667 42.667s-19.103 42.667-42.667 42.667v0zM85.333-64h85.333v42.667c0 47.128 38.205 85.333 85.333 85.333s85.333-38.205 85.333-85.333v0-42.667h85.333v42.667c0 47.128 38.205 85.333 85.333 85.333s85.333-38.205 85.333-85.333v0-42.667h85.333v42.667c0 47.128 38.205 85.333 85.333 85.333s85.333-38.205 85.333-85.333v0-42.667h85.333v213.333h-853.333z" />
<glyph unicode="&#xe90b;" glyph-name="horloger" d="M512 960c-282.77 0-512-229.23-512-512s229.23-512 512-512c282.77 0 512 229.23 512 512v0c0 282.77-229.23 512-512 512v0zM712.96 247.040c-7.733-7.795-18.45-12.621-30.293-12.621s-22.56 4.826-30.291 12.618l-0.003 0.003-183.040 183.467v358.827c0 23.564 19.103 42.667 42.667 42.667s42.667-19.103 42.667-42.667v0-323.84l158.293-157.867c7.795-7.733 12.621-18.45 12.621-30.293s-4.826-22.56-12.618-30.291l-0.003-0.003z" />
<glyph unicode="&#xe90c;" glyph-name="livraison" d="M981.333 149.333h-768v768c0 23.564-19.103 42.667-42.667 42.667v0h-128c-23.564 0-42.667-19.103-42.667-42.667s19.103-42.667 42.667-42.667v0h85.333v-768c0-23.564 19.103-42.667 42.667-42.667v0h85.333c0-70.692 57.308-128 128-128s128 57.308 128 128v0h128c0-70.692 57.308-128 128-128s128 57.308 128 128v0h85.333c23.564 0 42.667 19.103 42.667 42.667s-19.103 42.667-42.667 42.667v0zM345.173 234.667h504.32c0.051 0 0.112 0 0.173 0 23.564 0 42.667 19.103 42.667 42.667 0 1.352-0.063 2.689-0.186 4.009l0.013-0.169-42.667 469.333c-2.033 21.853-20.281 38.827-42.494 38.827-0.061 0-0.122 0-0.182 0h-38.818c0 94.257-76.41 170.667-170.667 170.667s-170.667-76.41-170.667-170.667v0h-39.68c-0.051 0-0.112 0-0.173 0-22.212 0-40.46-16.974-42.481-38.658l-0.013-0.169-42.667-469.333c-0.111-1.155-0.174-2.496-0.174-3.852 0-23.564 19.103-42.667 42.667-42.667 0.361 0 0.722 0.004 1.081 0.013l-0.053-0.001zM597.333 874.667c47.128 0 85.333-38.205 85.333-85.333v0h-170.667c0 47.128 38.205 85.333 85.333 85.333v0z" />
<glyph unicode="&#xe90d;" glyph-name="retouche" d="M1011.2 834.56c8.18 7.789 13.268 18.761 13.268 30.921 0 23.564-19.103 42.667-42.667 42.667-2.577 0-5.101-0.229-7.553-0.666l0.258 0.038c-53.73-7.752-101.108-30.508-138.962-63.828l0.295 0.255-281.173-275.2c-7.789-8.188-18.767-13.28-30.933-13.28s-23.144 5.092-30.917 13.262l-0.017 0.018-99.413 96.853c-7.163 7.614-11.565 17.897-11.565 29.208 0 4.814 0.797 9.442 2.267 13.759l-0.089-0.3c6.253 17.934 9.864 38.607 9.864 60.123 0 26.194-5.353 51.139-15.024 73.798l0.466-1.229c-25.202 58.823-77.080 101.967-139.992 114.567l-1.234 0.206c-13.145 3.174-28.236 4.995-43.752 4.995-107.217 0-194.133-86.916-194.133-194.133 0-14.005 1.483-27.664 4.301-40.828l-0.228 1.274c14.241-62.97 58.215-113.281 116.043-136.085l1.29-0.448c22.004-9.102 47.555-14.387 74.34-14.387 21.45 0 42.109 3.39 61.47 9.662l-1.41-0.395c3.824 1.245 8.225 1.963 12.793 1.963 11.635 0 22.183-4.657 29.88-12.21l98.98-96.847c7.795-7.733 12.621-18.45 12.621-30.293s-4.826-22.56-12.618-30.291l-0.003-0.003-96.853-97.707c-7.69-7.546-18.238-12.203-29.873-12.203-4.568 0-8.969 0.718-13.095 2.047l0.302-0.084c-18.312 6.058-39.39 9.552-61.285 9.552-26.791 0-52.361-5.232-75.743-14.729l1.348 0.484c-59.111-23.337-103.219-73.353-117.921-134.793l-0.265-1.313c-2.589-11.89-4.072-25.549-4.072-39.555 0-107.217 86.916-194.133 194.133-194.133 15.516 0 30.608 1.82 45.072 5.259l-1.32-0.265c63.554 13.112 114.816 56.206 139.047 113.513l0.473 1.26c9.898 21.998 15.665 47.684 15.665 74.718 0 20.729-3.391 40.667-9.647 59.288l0.382-1.312c-1.181 3.729-1.862 8.018-1.862 12.465 0 11.798 4.788 22.477 12.527 30.201l0.001 0.001 98.987 96.853c7.789 8.188 18.767 13.28 30.933 13.28s23.144-5.092 30.917-13.262l0.017-0.018 281.6-275.2c37.559-33.066 84.937-55.822 137.23-63.402l1.437-0.171c2.193-0.4 4.717-0.628 7.294-0.628 23.564 0 42.667 19.103 42.667 42.667 0 12.161-5.087 23.133-13.25 30.905l-0.018 0.017-364.373 356.267c-7.795 7.733-12.621 18.45-12.621 30.293s4.826 22.56 12.618 30.291l0.003 0.003zM196.267 672c-0.256-0.002-0.559-0.004-0.862-0.004-53.278 0-96.552 42.829-97.271 95.936l-0.001 0.068c0 54.198 43.936 98.133 98.133 98.133s98.133-43.936 98.133-98.133v0c-0.72-53.175-43.994-96.004-97.272-96.004-0.303 0-0.606 0.001-0.908 0.004h0.046zM196.267 32c-52.094 1.194-93.867 43.707-93.867 95.976 0 53.019 42.981 96 96 96 53.011 0 95.986-42.967 96-95.975v-0.001c-0.72-53.175-43.994-96.004-97.272-96.004-0.303 0-0.606 0.001-0.908 0.004h0.046zM523.52 405.333c-23.564 0-42.667 19.103-42.667 42.667s19.103 42.667 42.667 42.667c23.564 0 42.667-19.103 42.667-42.667v0c0-23.564-19.103-42.667-42.667-42.667v0z" />
<glyph unicode="&#xe90e;" glyph-name="services-commande" d="M833.28 36.267l-221.44 19.627c-62.597 5.751-116.732 37.763-151.921 84.777l-0.399 0.557-71.253 93.44 121.173-90.88c8.619-6.345 19.429-10.177 31.132-10.24h0.015c0.152-0.002 0.331-0.003 0.511-0.003 28.748 0 52.053 23.305 52.053 52.053 0 12.696-4.545 24.33-12.097 33.365l0.067-0.082-13.227 15.787-72.533 90.453c-14.81 18.651-32.303 34.38-52.055 46.858l-0.852 0.502c-32.243 20.612-71.565 32.853-113.746 32.853-0.061 0-0.123 0-0.184 0h-285.857c-23.564 0-42.667-19.103-42.667-42.667v0-170.667c0-23.564 19.103-42.667 42.667-42.667v0h23.040c12.65-0.034 24.441-3.684 34.401-9.971l-0.267 0.158 289.707-177.493c25.703-16.331 57.014-26.027 90.589-26.027 0.102 0 0.204 0 0.306 0h419.397v15.787c0.006 0.367 0.009 0.801 0.009 1.235 0 40.476-28.181 74.371-65.993 83.132l-0.576 0.112zM981.333 750.507c-2.033 21.853-20.281 38.827-42.494 38.827-0.061 0-0.122 0-0.182 0h-39.671c0 94.257-76.41 170.667-170.667 170.667s-170.667-76.41-170.667-170.667v0h-39.68c-0.051 0-0.112 0-0.173 0-22.212 0-40.46-16.974-42.481-38.658l-0.013-0.169-25.173-285.867c44.624-19.74 81.967-48.738 110.919-84.766l0.441-0.567 85.333-107.093c8.494-10.464 15.433-22.627 20.206-35.826l0.274-0.868h314.027c0.051 0 0.112 0 0.173 0 23.564 0 42.667 19.103 42.667 42.667 0 1.352-0.063 2.689-0.186 4.009l0.013-0.169zM643.413 789.333c0 47.128 38.205 85.333 85.333 85.333s85.333-38.205 85.333-85.333v0z" />
<glyph unicode="&#xe90f;" glyph-name="shopping-mains-libres" d="M389.12 555.947l-107.093 85.333c-8.894 7.309-20.394 11.739-32.929 11.739-8.362 0-16.263-1.972-23.265-5.476l0.301 0.136c-17.149-8.752-28.688-26.286-28.688-46.514 0-11.736 3.884-22.565 10.437-31.272l-0.096 0.133 90.88-122.027-94.293 72.107c-47.571 35.588-79.583 89.723-85.271 151.482l-0.062 0.838-18.773 221.44c-9.034 38.175-42.825 66.144-83.148 66.144-0.468 0-0.936-0.004-1.403-0.011l0.070 0.001h-15.787v-418.987c-0.011-0.713-0.017-1.554-0.017-2.397 0-33.587 9.702-64.907 26.456-91.312l-0.413 0.696 161.28-256c16.331-25.703 26.027-57.014 26.027-90.589 0-0.102 0-0.204 0-0.306v0.016-122.453c0-23.564 19.103-42.667 42.667-42.667v0h170.667c23.564 0 42.667 19.103 42.667 42.667v0 410.453c0 0.036 0 0.080 0 0.123 0 67.277-31.142 127.281-79.798 166.381l-0.415 0.323zM1008.213 960c-0.621 0.016-1.352 0.025-2.085 0.025-40.482 0-74.381-28.19-83.136-66.010l-0.112-0.575-19.627-221.44c-5.751-62.597-37.763-116.732-84.777-151.921l-0.557-0.399-92.587-71.68 90.88 120.747c6.457 8.573 10.341 19.403 10.341 31.139 0 20.229-11.539 37.762-28.393 46.378l-0.294 0.137c-6.869 3.572-14.999 5.667-23.619 5.667-12.24 0-23.493-4.225-32.381-11.295l0.106 0.082-107.093-85.333c-48.994-39.361-80.115-99.236-80.213-166.384v-410.469c0-23.564 19.103-42.667 42.667-42.667v0h170.667c23.564 0 42.667 19.103 42.667 42.667v0 122.453c0 0.086 0 0.188 0 0.291 0 33.576 9.696 64.887 26.44 91.286l-0.413-0.697 161.28 256c16.342 25.709 26.044 57.029 26.044 90.616 0 0.843-0.006 1.684-0.018 2.524l0.001-0.127v418.987z" />
<glyph unicode="&#xe910;" glyph-name="visite-historique" d="M821.333 960h-405.333c-0.431 0.003-0.94 0.005-1.45 0.005-54.98 0-104.953-21.442-142.011-56.419l0.101 0.094c-36.41-33.947-59.155-82.142-59.307-135.652v-0.028c2.814-106.676 89.961-192.080 197.056-192.080 1.973 0 3.939 0.029 5.898 0.087l-0.287-0.007h202.667c0-85.333-90.027-128-90.027-128 82.174 2.090 151.699 54.047 179.597 126.648l0.457 1.352h112.64c0.431-0.003 0.94-0.005 1.45-0.005 54.98 0 104.953 21.442 142.011 56.419l-0.101-0.094c36.41 33.947 59.155 82.142 59.307 135.652v0.028c-2.814 106.676-89.961 192.080-197.056 192.080-1.973 0-3.939-0.029-5.898-0.087l0.287 0.007zM405.333 704c-35.346 0-64 28.654-64 64s28.654 64 64 64c35.346 0 64-28.654 64-64v0c0-35.346-28.654-64-64-64v0zM618.667 704c-35.346 0-64 28.654-64 64s28.654 64 64 64c35.346 0 64-28.654 64-64v0c0-35.346-28.654-64-64-64v0zM832 704c-35.346 0-64 28.654-64 64s28.654 64 64 64c35.346 0 64-28.654 64-64v0c0-35.346-28.654-64-64-64v0zM253.013 255.573c45.882 2.746 85.433 27.55 108.467 63.864l0.333 0.562c13.505 20.607 21.54 45.855 21.54 72.979 0 7.982-0.696 15.802-2.030 23.401l0.117-0.807c-8.85 54.839-48.629 98.477-100.566 112.835l-0.98 0.231-23.893 4.693h-24.747l-15.787-2.987c-63.062-14.089-109.493-69.576-109.493-135.907 0-76.819 62.274-139.093 139.093-139.093 2.795 0 5.571 0.082 8.326 0.245l-0.38-0.018zM366.507 254.72c-29.867 0-59.307-42.667-123.307-42.667s-91.733 42.667-121.173 42.667c-39.68 0-122.027-31.147-122.027-179.627 0-53.76-14.933-139.093 242.773-139.093v0c256 0 244.053 85.333 244.053 139.093 1.28 148.48-81.067 179.627-120.32 179.627z" />
<glyph unicode="&#xe911;" glyph-name="wifi" d="M48.64 274.347c-1.795 0.268-3.868 0.42-5.975 0.42-23.564 0-42.667-19.103-42.667-42.667 0-0.148 0.001-0.295 0.002-0.443v0.022-253.013c0-23.564 19.103-42.667 42.667-42.667v0h253.013c0.125-0.001 0.273-0.002 0.42-0.002 23.564 0 42.667 19.103 42.667 42.667 0 2.108-0.153 4.18-0.448 6.206l0.028-0.231c-22.040 150.297-139.41 267.667-287.853 289.483l-1.854 0.224zM46.507 618.667c-1.151 0.11-2.488 0.173-3.84 0.173-23.564 0-42.667-19.103-42.667-42.667 0-0.061 0-0.122 0-0.183v0.009-128c282.77 0 512-229.23 512-512v0h128c0.051 0 0.112 0 0.173 0 23.564 0 42.667 19.103 42.667 42.667 0 1.352-0.063 2.689-0.186 4.009l0.013-0.169c-23.261 341.578-294.582 612.899-634.054 636.045l-2.106 0.115zM42.667 960c-23.564 0-42.667-19.103-42.667-42.667v0-128c471.283 0 853.333-382.050 853.333-853.333v0h128c23.564 0 42.667 19.103 42.667 42.667v0c-22.447 532.705-448.629 958.887-979.253 981.264l-2.080 0.070z" />
<glyph unicode="&#xe912;" glyph-name="premium" d="M554.667 928.853l101.12-325.547h325.547c24.191-0.994 43.426-20.846 43.426-45.191 0-14.817-7.125-27.969-18.135-36.218l-0.118-0.084-264.96-201.813 101.12-325.973c2.184-4.959 3.455-10.741 3.455-16.819 0-23.564-19.103-42.667-42.667-42.667-10.243 0-19.643 3.61-26.998 9.626l0.076-0.060-264.533 201.813-264.533-200.96c-7.278-5.956-16.678-9.566-26.922-9.566-23.564 0-42.667 19.103-42.667 42.667 0 6.078 1.271 11.86 3.562 17.093l-0.107-0.274 101.12 325.12-264.533 201.813c-11.142 8.333-18.277 21.493-18.277 36.32 0 24.203 19.012 43.966 42.916 45.169l0.107 0.004h327.253l99.413 325.547c0 23.564 19.103 42.667 42.667 42.667s42.667-19.103 42.667-42.667v0z" />
<glyph unicode="&#xe913;" glyph-name="app-geolocalisation" d="M402.773 692.053c0 0.159 0 0.348 0 0.536 0 50.419 10.678 98.345 29.896 141.638l-0.883-2.227h-346.453c-47.128 0-85.333-38.205-85.333-85.333v0-725.333c0-47.128 38.205-85.333 85.333-85.333v0h426.667c47.128 0 85.333 38.205 85.333 85.333v0 241.92c-62.108 72.469-114.768 155.624-154.497 245.761l-2.516 6.399c-22.656 52.050-36.349 112.59-37.54 176.188l-0.007 0.452zM298.667 21.333c-23.564 0-42.667 19.103-42.667 42.667s19.103 42.667 42.667 42.667c23.564 0 42.667-19.103 42.667-42.667v0c0-23.564-19.103-42.667-42.667-42.667v0zM984.747 832c-39.107 63.181-102.175 108.357-176.217 123.025l-1.703 0.281c-15.081 2.881-32.478 4.584-50.253 4.693h-0.094c-55.995-0.069-107.995-17.115-151.146-46.264l0.959 0.611c-28.717-19.72-52.814-43.816-71.93-71.605l-0.603-0.928-6.827-9.813c-24.378-39.32-38.827-87.016-38.827-138.086 0-0.204 0-0.408 0.001-0.612v0.032c1.050-52.376 12.567-101.796 32.532-146.623l-0.959 2.41c22.82-55.062 48.85-102.363 79.331-146.345l-1.677 2.558c40.37-58.551 82.435-109.826 128.341-157.369l-0.341 0.355c7.513-7.667 17.884-12.509 29.386-12.799l0.054-0.001c11.712 0.172 22.255 5.037 29.86 12.793l0.007 0.007c84.141 84.189 153.632 183.031 204.313 292.367l2.62 6.3c20.292 39.639 32.184 86.472 32.184 136.083 0 54.727-14.471 106.073-39.796 150.422l0.785-1.492zM756.053 589.227c-68.336 0-123.733 55.398-123.733 123.733s55.397 123.733 123.733 123.733c68.336 0 123.733-55.397 123.733-123.733 0-0.15 0-0.3-0.001-0.45v0.023c0 0 0-0.001 0-0.001 0-68.1-55.206-123.307-123.307-123.307-0.15 0-0.3 0-0.45 0.001h0.023z" />
<glyph unicode="&#xe914;" glyph-name="marquage-a-chaud" d="M298.667 641.707v-364.373h170.667v364.373c51.373 30.058 85.333 84.964 85.333 147.802 0 94.257-76.41 170.667-170.667 170.667s-170.667-76.41-170.667-170.667c0-62.838 33.96-117.744 84.528-147.366l0.805-0.436zM720.213 192h-672.427c-0.665 0.035-1.444 0.054-2.228 0.054-24.182 0-43.973-18.801-45.552-42.583l-0.007-0.138v-213.333h768v213.333c-1.586 23.92-21.377 42.721-45.559 42.721-0.784 0-1.562-0.020-2.336-0.059l0.109 0.004zM858.453 789.333c-63.601-18.035-117.705-52.39-159.321-98.278l-0.252-0.282c-23.838-27.273-38.376-63.205-38.376-102.532 0-9.908 0.923-19.601 2.687-28.996l-0.151 0.969c8.652-42.684 25.457-80.396 48.818-113.104l-0.605 0.891c10.564-15.806 20.68-34.008 29.304-53.030l0.989-2.437c6.557-12.742 10.401-27.804 10.401-43.765 0-22.695-7.772-43.575-20.799-60.123l0.158 0.208c-7.405-8.602-15.073-16.405-23.223-23.679l-0.244-0.214c36.843 3.802 70.206 16.010 99.006 34.663l-0.873-0.53c24.369 16.287 40.701 42.956 42.652 73.534l0.014 0.279c0.136 2.4 0.214 5.208 0.214 8.034 0 22.934-5.111 44.674-14.257 64.143l0.39-0.924c-17.493 42.667-37.973 81.92-52.48 124.587-7.331 18.325-11.582 39.567-11.582 61.801 0 36.605 11.524 70.518 31.142 98.31l-0.36-0.537q28.16 30.72 56.747 61.013zM961.707 603.733c-6.095 15.247-9.629 32.918-9.629 51.416 0 30.606 9.677 58.952 26.139 82.144l-0.296-0.44c15.25 19.216 30.326 36.32 46.219 52.623l-0.139-0.143c-53.102-14.983-98.261-43.704-132.901-82.1l-0.219-0.247c-20.063-22.839-32.304-52.977-32.304-85.975 0-8.067 0.732-15.963 2.132-23.625l-0.121 0.8c7.312-36.162 21.436-68.131 41.063-95.938l-0.53 0.791c8.782-13.133 17.188-28.255 24.353-44.059l0.82-2.021c5.217-10.443 8.27-22.751 8.27-35.771 0-18.732-6.32-35.988-16.944-49.752l0.14 0.189c-6.218-7.208-12.63-13.755-19.431-19.88l-0.196-0.174c31.097 2.651 59.436 12.464 83.998 27.77l-0.798-0.463c20.843 13.318 34.994 35.528 37.101 61.152l0.019 0.288c0.080 1.713 0.126 3.721 0.126 5.74 0 19.567-4.29 38.132-11.982 54.806l0.336-0.813c-15.787 33.28-32.853 68.267-45.227 103.68z" />
<glyph unicode="&#xe915;" glyph-name="objets-trouves" d="M938.667 704h-170.667v85.333c0 94.257-76.41 170.667-170.667 170.667v0h-170.667c-94.257 0-170.667-76.41-170.667-170.667v0-85.333h-170.667c-47.128 0-85.333-38.205-85.333-85.333v0-597.333c0-47.128 38.205-85.333 85.333-85.333v0h853.333c47.128 0 85.333 38.205 85.333 85.333v0 597.333c0 47.128-38.205 85.333-85.333 85.333v0zM213.333 64c0-23.564-19.103-42.667-42.667-42.667s-42.667 19.103-42.667 42.667v0 512c0 23.564 19.103 42.667 42.667 42.667s42.667-19.103 42.667-42.667v0zM551.68 70.4c-8.827-9.468-21.373-15.37-35.296-15.37-0.341 0-0.682 0.004-1.021 0.011l0.051-0.001c-28.513 0-51.627 23.114-51.627 51.627v0c-0.012 0.406-0.019 0.884-0.019 1.363 0 13.722 5.733 26.105 14.934 34.885l0.019 0.018c9.13 9.227 21.795 14.941 35.795 14.941 0.316 0 0.631-0.003 0.946-0.009l-0.047 0.001c0.3 0.007 0.654 0.010 1.008 0.010 13.832 0 26.327-5.723 35.246-14.931l0.013-0.013c9.222-9.064 14.938-21.671 14.938-35.612 0-0.23-0.002-0.46-0.005-0.689v0.035c0.001-0.142 0.002-0.31 0.002-0.478 0-13.997-5.712-26.66-14.931-35.785l-0.004-0.004zM648.96 304.213c-15.085-26.101-36.547-47.017-62.31-61.024l-0.837-0.416c-7.374-3.833-13.328-9.513-17.384-16.439l-0.109-0.201c-4.023-6.74-6.401-14.865-6.401-23.546 0-0.122 0-0.244 0.001-0.366v0.019h-103.68c-0.004 0.419-0.007 0.913-0.007 1.409 0 27.847 7.778 53.877 21.279 76.037l-0.366-0.646c14.039 23.289 33.552 41.982 56.819 54.651l0.781 0.389c9.802 5.381 17.659 13.238 22.891 22.744l0.149 0.296c5.115 9.308 8.124 20.398 8.124 32.19 0 0.533-0.006 1.065-0.018 1.595l0.001-0.079c0.007 0.341 0.011 0.742 0.011 1.145 0 11.252-3.179 21.762-8.689 30.68l0.144-0.251c-11.288 18.469-31.307 30.631-54.174 30.72h-0.013c-0.099 0.001-0.217 0.001-0.335 0.001-11.522 0-22.303-3.172-31.518-8.689l0.28 0.155c-9.515-5.439-17.281-12.933-22.883-21.916l-0.157-0.27c-5.362-9.046-8.531-19.939-8.533-31.573v-0.001h-103.253c-0.007 0.563-0.011 1.228-0.011 1.895 0 29.987 8.249 58.046 22.602 82.034l-0.404-0.729c14.999 24.746 35.452 44.789 59.783 58.877l0.804 0.43c23.958 14.21 52.812 22.608 83.627 22.608s59.669-8.398 84.397-23.030l-0.771 0.422c24.954-14.912 45.249-35.207 59.729-59.384l0.431-0.776c14.211-23.078 22.629-51.039 22.629-80.966 0-0.785-0.006-1.57-0.017-2.352l0.001 0.118c0.001-0.256 0.002-0.558 0.002-0.86 0-31.243-8.395-60.525-23.053-85.714l0.437 0.814zM682.667 704h-341.333v85.333c0 47.128 38.205 85.333 85.333 85.333v0h170.667c47.128 0 85.333-38.205 85.333-85.333v0zM896 64c0-23.564-19.103-42.667-42.667-42.667s-42.667 19.103-42.667 42.667v0 512c0 23.564 19.103 42.667 42.667 42.667s42.667-19.103 42.667-42.667v0z" />
<glyph unicode="&#xe916;" glyph-name="consigne" d="M512 960c-282.77 0-512-229.23-512-512s229.23-512 512-512c282.77 0 512 229.23 512 512v0c0 282.77-229.23 512-512 512v0zM464.64 23.893c-198.119 22.712-353.808 178.255-376.559 374.335l-0.187 1.985c-0.196 1.537-0.308 3.316-0.308 5.121 0 23.564 19.103 42.667 42.667 42.667 0.108 0 0.217 0 0.325-0.001h-0.017c0.108 0.001 0.235 0.002 0.362 0.002 21.609 0 39.466-16.064 42.281-36.902l0.024-0.22c16.929-159.735 141.864-285.692 299.635-304.063l1.592-0.151c21.258-2.643 37.548-20.598 37.548-42.358 0-0.108 0-0.217-0.001-0.325v0.017c-1.252-22.556-19.848-40.372-42.605-40.372-1.675 0-3.328 0.097-4.953 0.284l0.198-0.019zM577.28 230.4h-92.16v338.773h-58.453l24.747 92.16h125.867zM893.44 448c-0.125-0.001-0.272-0.002-0.42-0.002-21.458 0-39.216 15.84-42.219 36.465l-0.028 0.23c-6.507 63.99-30.188 121.445-66.305 168.927l0.599-0.821c-55.523 73.873-139.239 123.972-234.878 134.269l-1.495 0.131c-20.855 3.031-36.695 20.789-36.695 42.247 0 0.148 0.001 0.295 0.002 0.442v-0.022c-0.001 0.092-0.001 0.2-0.001 0.308 0 23.564 19.103 42.667 42.667 42.667 1.805 0 3.584-0.112 5.33-0.33l-0.209 0.021c197.939-22.9 353.42-178.381 376.133-374.336l0.187-1.984c0.231-1.666 0.362-3.592 0.362-5.548 0-23.564-19.103-42.667-42.667-42.667-0.127 0-0.255 0.001-0.382 0.002h0.019z" />
<glyph unicode="&#xe917;" glyph-name="distributeur" d="M0 960v-341.333c0-47.128 38.205-85.333 85.333-85.333v0h85.333v85.333h-42.667c-23.564 0-42.667 19.103-42.667 42.667v0 213.333h853.333v-213.333c0-23.564-19.103-42.667-42.667-42.667v0h-42.667v-85.333h85.333c47.128 0 85.333 38.205 85.333 85.333v0 341.333zM810.667 789.333h-597.333c-23.564 0-42.667-19.103-42.667-42.667s19.103-42.667 42.667-42.667v0h42.667v-727.893c1.39-22.436 19.926-40.107 42.59-40.107 0.027 0 0.054 0 0.081 0h426.663c0.023 0 0.050 0 0.077 0 22.664 0 41.2 17.67 42.584 39.985l0.006 0.121v727.893h42.667c23.564 0 42.667 19.103 42.667 42.667s-19.103 42.667-42.667 42.667v0zM640 494.507c-11.297 3.349-24.277 5.276-37.707 5.276-4.45 0-8.851-0.212-13.193-0.625l0.554 0.043c-16.656-1.915-31.811-6.748-45.496-13.989l0.696 0.336c-14.494-7.592-26.886-16.99-37.494-28.105l-0.053-0.055c-11.109-12.055-20.182-26.195-26.542-41.733l-0.338-0.934h85.333v-52.053h-100.693v-29.867h99.413v-52.053h-85.333c6.886-16.421 15.936-30.534 26.997-42.799l-0.117 0.132c10.703-11.167 23.26-20.453 37.195-27.383l0.779-0.35c12.369-6.605 26.826-11.152 42.158-12.757l0.509-0.043c3.81-0.372 8.236-0.584 12.712-0.584 12.933 0 25.453 1.771 37.33 5.083l-0.975-0.232v-73.813c-12.058-2.449-25.919-3.851-40.107-3.851s-28.048 1.402-41.45 4.074l1.344-0.223c-52.803 11.351-97.31 40.968-127.593 81.773l-0.407 0.573c-14.873 20.378-26.815 44.066-34.551 69.582l-0.435 1.671h-51.2v53.333h47.787v27.733h-47.787v54.187h57.173c7.455 28.173 19.487 52.815 35.409 74.413l-0.422-0.599c15.51 20.979 34.019 38.672 55.1 52.831l0.794 0.502c20.254 13.43 44.007 23.511 69.518 28.787l1.309 0.226c11.995 2.355 25.787 3.703 39.893 3.703s27.899-1.348 41.254-3.921l-1.361 0.218z" />
<glyph unicode="&#xe918;" glyph-name="echange-remboursements" d="M775.68 779.947l6.4-3.413v-3.413c-12.373 0-24.747 0-37.12 0h-2.56c-22.213-1.716-39.586-20.163-39.586-42.667 0-23.63 19.156-42.786 42.786-42.786 1.126 0 2.242 0.044 3.346 0.129l-0.146-0.009h138.667c22.436 1.39 40.107 19.926 40.107 42.59 0 0.027 0 0.054 0 0.081v-0.004c0 45.653 0 90.88 0 136.533-0.516 9.696-3.465 18.606-8.242 26.259l0.135-0.232c-7.256 11.094-19.621 18.322-33.674 18.322-4.593 0-9.005-0.772-13.114-2.193l0.282 0.085c-17.914-5.33-30.754-21.651-30.754-40.97 0-0.597 0.012-1.191 0.037-1.781l-0.003 0.085v-34.133l-8.533 6.827c-64.73 56.108-144.873 96.139-233.237 112.995l-3.137 0.498c-20.053 2.987-38.827 4.693-57.173 7.253h-61.867c-18.773-2.56-37.547-4.693-56.32-8.107-223.648-40.906-394.764-222.601-419.214-448.291l-0.199-2.269-2.56-20.48v-39.68l3.84-8.96c6.346-15.638 21.272-26.534 38.784-26.879l0.043-0.001c0.386-0.013 0.839-0.021 1.294-0.021 16.862 0 31.267 10.518 37.014 25.35l0.092 0.271c2.786 6.392 4.406 13.84 4.406 21.666 0 1.384-0.051 2.757-0.15 4.116l0.011-0.182c6.628 230.469 195.041 414.774 426.501 414.774 100.013 0 191.989-34.411 264.734-92.040l-0.888 0.679zM986.453 490.667c-1.364 0.155-2.945 0.243-4.546 0.243-21.846 0-39.857-16.418-42.368-37.588l-0.019-0.202c0-6.4 0-13.227 0-19.627-3.424-35.892-8.394-67.774-15.080-99.019l1 5.579c-46.563-177.685-201.033-308.412-387.603-318.672l-1.090-0.048c-6.931-0.41-15.035-0.644-23.195-0.644-89.354 0-172.162 28.028-240.112 75.772l1.333-0.888c-10.24 6.827-19.627 14.933-29.44 22.187v2.56c6.379-0.425 13.828-0.667 21.333-0.667s14.955 0.242 22.34 0.719l-1.006-0.052c22.927 0.828 41.199 19.613 41.199 42.667 0 23.579-19.114 42.693-42.693 42.693-0.525 0-1.048-0.009-1.569-0.028l0.075 0.002c-47.787 0-95.573 0-142.933 0-0.775 0.053-1.681 0.084-2.593 0.084-21.58 0-39.179-17.043-40.071-38.403l-0.003-0.081c-0.306-5.544-0.48-12.031-0.48-18.56s0.174-13.016 0.518-19.459l-0.038 0.899c0-34.56 0-69.12 0-103.68v-5.12c1.716-22.213 20.163-39.586 42.667-39.586 23.63 0 42.786 19.156 42.786 42.786 0 1.126-0.044 2.242-0.129 3.346l0.009-0.146v29.867c13.653-10.24 25.173-19.627 37.547-28.587 62.455-43.594 137.359-73.868 218.362-85.034l2.651-0.299c21.938-3.549 47.226-5.577 72.988-5.577 54.485 0 106.852 9.070 155.673 25.782l-3.381-1.006c164.005 52.696 289.314 182.654 334.523 345.899l0.837 3.541c12.51 39.918 19.823 85.836 20.053 133.428v0.119c0.044 0.727 0.069 1.577 0.069 2.433 0 21.784-16.326 39.755-37.41 42.346l-0.207 0.021zM512 718.507c-149.397 0-270.507-121.11-270.507-270.507s121.11-270.507 270.507-270.507c149.397 0 270.507 121.11 270.507 270.507v0 0c0 149.397-121.11 270.507-270.507 270.507v0zM551.253 558.507c-7.499 2-16.108 3.149-24.986 3.149-5.033 0-9.98-0.369-14.816-1.082l0.548 0.066c-12.771-1.775-24.291-5.833-34.595-11.765l0.461 0.245c-10.95-6.197-20.26-13.875-28.046-22.905l-0.114-0.135c-7.877-9.108-14.358-19.702-18.94-31.255l-0.26-0.745h62.72v-31.573h-71.253v-25.6h71.68v-31.573h-62.293c4.882-12.332 11.512-22.936 19.716-32.101l-0.089 0.101c7.9-9.165 17.21-16.843 27.645-22.771l0.515-0.269c9.857-5.565 21.394-9.484 33.666-11.045l0.467-0.048c3.793-0.529 8.175-0.83 12.628-0.83 9.017 0 17.745 1.238 26.024 3.552l-0.678-0.162v-46.080c-7.837-1.515-16.85-2.382-26.065-2.382-29.722 0-57.338 9.018-80.26 24.467l0.512-0.325c-15.206 10.336-28.066 22.789-38.522 37.108l-0.305 0.438c-9.693 14.449-17.441 31.211-22.335 49.15l-0.278 1.197h-42.667v31.573h36.693v25.6h-36.693v31.573h42.667c5.237 19.539 13.594 36.623 24.618 51.626l-0.298-0.426c10.902 14.756 23.899 27.21 38.699 37.194l0.555 0.353c14.111 9.689 30.711 16.951 48.592 20.746l0.901 0.16c8.402 1.739 18.058 2.734 27.947 2.734s19.544-0.995 28.873-2.891l-0.927 0.157zM537.173 305.493v0 0z" />
<glyph unicode="&#xe919;" glyph-name="paiement-devises" d="M938.667 576h-85.333v256c0 70.692-57.308 128-128 128v0h-597.333c-70.692 0-128-57.308-128-128v0-341.333c0-70.692 57.308-128 128-128v0h42.667v-341.333c0-47.128 38.205-85.333 85.333-85.333v0h768v554.667c0 47.128-38.205 85.333-85.333 85.333v0zM725.333 391.253c-10.954 3.152-23.535 4.964-36.54 4.964-4.863 0-9.666-0.253-14.398-0.748l0.591 0.050c-16.622-1.77-31.792-6.462-45.514-13.563l0.714 0.336c-28.506-15.34-50.829-39.039-64.054-67.789l-0.373-0.905h85.333v-52.053h-100.693v-30.293h99.413v-51.627h-85.333c6.808-16.441 15.868-30.566 26.985-42.784l-0.105 0.117c10.703-11.167 23.26-20.453 37.195-27.383l0.779-0.35c12.392-6.238 26.792-10.743 41.985-12.727l0.682-0.073c3.115-0.248 6.744-0.39 10.406-0.39 15.343 0 30.107 2.484 43.909 7.073l-0.982-0.283v-78.507c-12.059-2.353-25.926-3.699-40.107-3.699s-28.048 1.346-41.479 3.917l1.373-0.219c-26.831 5.922-50.535 16.11-71.638 29.939l0.812-0.499c-21.66 14.606-40.016 32.148-55.046 52.316l-0.421 0.591c-14.866 20.509-26.81 44.338-34.549 69.991l-0.438 1.689h-57.173v52.907h47.787v30.293h-47.787v52.053h57.173c7.77 27.532 19.76 51.559 35.413 72.71l-0.426-0.603c15.508 20.833 34.017 38.391 55.087 52.402l0.807 0.504c20.292 13.33 43.995 23.518 69.407 29.175l1.42 0.265c11.994 2.453 25.78 3.857 39.893 3.857s27.899-1.404 41.225-4.081l-1.331 0.223zM768 576h-597.333v-128h-42.667c-23.564 0-42.667 19.103-42.667 42.667v0 196.267h682.667zM768 762.027h-682.667v69.973c0 23.564 19.103 42.667 42.667 42.667v0h597.333c23.564 0 42.667-19.103 42.667-42.667v0z" />
<glyph unicode="&#xe91a;" glyph-name="parking" d="M600.32 618.667c-9.421 5.892-20.866 9.387-33.127 9.387-0.054 0-0.108 0-0.162 0h-88.739v-137.387h88.747c0.046 0 0.099 0 0.153 0 12.261 0 23.706 3.494 33.393 9.542l-0.266-0.155c10.176 6.24 18.402 14.738 24.142 24.834l0.178 0.339c5.917 9.749 9.419 21.532 9.419 34.133s-3.502 24.385-9.585 34.43l0.167-0.297c-5.918 10.435-14.144 18.933-24.022 25.003l-0.298 0.171zM938.667 960h-853.333c-47.128 0-85.333-38.205-85.333-85.333v0-853.333c0-47.128 38.205-85.333 85.333-85.333v0h853.333c47.128 0 85.333 38.205 85.333 85.333v0 853.333c0 47.128-38.205 85.333-85.333 85.333v0zM745.387 452.693c-17.195-29.16-40.488-52.999-68.261-70.327l-0.859-0.499c-26.345-16.603-58.393-26.455-92.741-26.455-0.246 0-0.491 0.001-0.737 0.002h-104.495v-248.747h-136.96v640h241.493c0.545 0.006 1.188 0.010 1.832 0.010 34.596 0 66.852-10.018 94.026-27.312l-0.711 0.423c28.502-17.657 51.474-41.722 67.342-70.277l0.498-0.976c15.839-27.642 25.18-60.763 25.18-96.065 0-0.577-0.002-1.154-0.007-1.73l0.001 0.088c0.008-0.657 0.013-1.434 0.013-2.211 0-35.307-9.509-68.393-26.105-96.836l0.493 0.914z" />
<glyph unicode="&#xe91b;" glyph-name="coupole" d="M784.213 30.293v240.213c-2.56 70.4-122.88 125.44-273.92 125.44s-271.36-55.040-273.92-128v-241.92c-35.408-16.663-60.588-49.914-65.647-89.456l-0.060-0.571h20.907c0 34.987 32.427 68.693 90.453 94.72 67.76 26.534 146.217 41.912 228.267 41.912s160.507-15.378 232.647-43.41l-4.381 1.498c58.027-26.027 90.453-59.733 90.453-94.72h24.32c-5.022 42.222-31.662 77.231-68.381 93.991l-0.739 0.302zM512 376.747c136.96 0 250.453-48.213 252.587-106.667v-30.293c-6.991 32.527-29.425 58.624-59.077 70.593l-0.656 0.234c-35.413 10.24-64-18.347-64-63.147v-166.4l-39.253 5.973v170.667c-4.596 45.583-42.764 80.866-89.173 80.866s-84.577-35.284-89.142-80.489l-0.031-0.377v-170.667c-13.227 0-26.453-3.413-39.253-5.973v166.4c0 42.667-28.587 73.387-63.573 63.573-33.408-12.102-58.085-40.747-64.338-75.774l-0.089-0.599v34.133c3.84 59.733 116.907 107.947 256 107.947zM788.053 362.667v3.413c-9.479 102.924-81.834 186.656-177.921 212.936l-1.706 0.398v40.107c-3.512 17.878-15.568 32.331-31.65 39.122l-0.35 0.131v29.867c9.604 5.3 16.202 15.020 17.060 26.343l0.007 0.111v36.267c-1.364 13.425-10.047 24.532-21.949 29.355l-0.237 0.085v2.987c-0.141 17.357-8.42 32.751-21.205 42.572l-0.128 0.095v5.547c-0.144 14.406-8.765 26.764-21.107 32.335l-0.226 0.091v80.213c0 9.426-7.641 17.067-17.067 17.067s-17.067-7.641-17.067-17.067v0-80.213c-14.018-4.7-24.133-17.258-25.167-32.313l-0.006-0.114c-0.099-0.577-0.155-1.242-0.155-1.92s0.056-1.343 0.165-1.99l-0.010 0.070c-13.028-9.881-21.442-25.259-21.759-42.616l-0.001-0.051c-0.116-0.513-0.182-1.102-0.182-1.707s0.066-1.194 0.192-1.761l-0.010 0.054c-11.335-5.187-19.392-15.796-20.89-28.417l-0.016-0.169v-36.267c0.872-10.553 6.547-19.62 14.81-25.096l0.123-0.077v-32.427c-15.493-6.911-26.758-20.855-29.819-37.66l-0.047-0.313-3.413-45.653c-87.375-31.442-152.308-105.429-170.389-196.3l-0.278-1.674v-5.547c-28.664-22.843-47.443-57.041-49.48-95.676l-0.014-0.324h21.333c-1.28 86.187 131.84 158.72 299.52 158.72s301.653-72.533 301.653-160.427h21.333c-1.962 35.37-18.548 66.514-43.76 87.74l-0.187 0.153zM485.547 814.507l6.827 3.84-2.56 6.827c-0.098 0.769-0.154 1.658-0.154 2.56s0.056 1.791 0.165 2.664l-0.011-0.104c0.444 9.242 7.825 16.623 17.026 17.065l0.041 0.002h7.253c8-1.46 13.998-8.338 14.080-16.631v-0.009c0.198-0.769 0.312-1.651 0.312-2.56s-0.114-1.791-0.328-2.634l0.016 0.074-2.133-6.827 6.4-3.84c7.169-4.338 12.673-10.806 15.699-18.518l0.088-0.255c-11.531 2.947-24.768 4.638-38.4 4.638s-26.869-1.691-39.513-4.876l1.113 0.237c2.832 7.565 7.709 13.818 13.961 18.266l0.119 0.081zM442.88 751.36c0 12.8 27.307 27.307 66.133 27.307s66.133-14.507 66.133-27.307v-36.267c-2.388 17.925-17.579 31.608-35.966 31.608-0.556 0-1.109-0.013-1.659-0.037l0.078 0.003c-7.533-6.819-17.572-10.993-28.587-10.993s-21.054 4.173-28.623 11.025l0.036-0.032c-0.358 0.012-0.779 0.019-1.201 0.019-15.507 0-28.818-9.401-34.546-22.814l-0.093-0.245zM558.080 713.387v-46.933c-12.613 4.495-27.185 7.408-42.338 8.095l-0.328 0.012v38.827c0.85 10.606 9.667 18.891 20.418 18.891 0.773 0 1.537-0.043 2.287-0.126l-0.092 0.008c9.94-1 17.773-8.833 18.766-18.685l0.007-0.088zM499.627 713.387v-38.827c-15.585-1.015-30.113-4.215-43.718-9.305l1.051 0.345v47.787c1.284 10.667 10.28 18.854 21.189 18.854 0.652 0 1.297-0.029 1.933-0.086l-0.082 0.006c9.796-1.31 17.464-8.977 18.761-18.662l0.012-0.112zM432.213 618.667c0 14.507 33.707 36.693 76.8 36.693s76.373-22.187 76.8-36.693v-32.853c-10.594 2.654-23.517 4.908-36.7 6.292l-1.273 0.108c-5.353 0.305-11.616 0.479-17.92 0.479s-12.566-0.174-18.784-0.517l0.864 0.038c-4.91 0.305-10.648 0.478-16.427 0.478s-11.517-0.174-17.21-0.516l0.784 0.038h-15.36c-11.093-2.133-21.76-4.267-32.427-7.253zM503.893 458.24c-3.014 0.070-6.565 0.109-10.126 0.109-84.549 0-163.876-22.357-232.392-61.481l2.305 1.212c29.858 87.662 103.531 152.971 194.234 170.41l1.606 0.257h17.067c8.55 2.686 19.192 5.207 30.068 7.043l1.505 0.21c1.285 0.017 2.802 0.027 4.321 0.027 13.511 0 26.838-0.785 39.938-2.312l-1.593 0.151c17.483-2.412 33.18-6.29 48.193-11.615l-1.686 0.521 13.653-4.267c78.119-24.341 137.133-87.889 154.602-167.036l0.278-1.498c-70.391 42.992-155.561 68.448-246.677 68.448-4.629 0-9.242-0.066-13.84-0.196l0.677 0.015z" />
<glyph unicode="&#xe91c;" d="M321.707 808.96c17.518 65.448 76.289 112.855 146.133 112.855s128.616-47.407 145.892-111.799l0.241-1.056c22.3 13.904 49.377 22.148 78.379 22.148 41.377 0 78.835-16.78 105.94-43.907l0.001-0.001c27.604-26.184 44.779-63.129 44.779-104.086 0-28.683-8.424-55.399-22.932-77.808l0.34 0.56c66.166-15.347 114.726-73.789 114.726-143.573s-48.56-128.226-113.733-143.379l-0.994-0.195c14.168-21.849 22.592-48.565 22.592-77.248 0-40.956-17.175-77.902-44.715-104.026l-0.064-0.060c-26.943-27.325-64.369-44.252-105.749-44.252-29.111 0-56.264 8.377-79.182 22.853l0.611-0.361c-17.518-65.448-76.289-112.855-146.133-112.855s-128.616 47.407-145.892 111.799l-0.241 1.056c-22.363-14.075-49.56-22.425-78.707-22.425-41.459 0-78.972 16.895-106.030 44.175l-0.010 0.010c-27.909 26.221-45.292 63.365-45.292 104.569 0 29.016 8.62 56.019 23.44 78.587l-0.335-0.543c-66.166 15.347-114.726 73.789-114.726 143.573s48.56 128.226 113.733 143.379l0.994 0.195c-14.168 21.849-22.592 48.565-22.592 77.248 0 40.956 17.175 77.902 44.715 104.026l0.064 0.060c27.094 26.689 64.308 43.169 105.372 43.169 29.404 0 56.834-8.45 79.995-23.054l-0.621 0.365z" />
<glyph unicode="&#xe91d;" d="M1024 137.387c0-31.105-25.215-56.32-56.32-56.32s-56.32 25.215-56.32 56.32c0 31.105 25.215 56.32 56.32 56.32s56.32-25.215 56.32-56.32z" />
<glyph unicode="&#xe91e;" d="M239.36 637.013h435.627c26.627 0 48.213-21.586 48.213-48.213v-258.133c0-26.627-21.586-48.213-48.213-48.213h-435.627c-26.627 0-48.213 21.586-48.213 48.213v258.133c0 26.627 21.586 48.213 48.213 48.213z" />
<glyph unicode="&#xe91f;" d="M645.973 385.707h-96.427c-8.954 0-16.213 7.259-16.213 16.213s7.259 16.213 16.213 16.213h96.427c8.954 0 16.213-7.259 16.213-16.213s-7.259-16.213-16.213-16.213v0z" />
<glyph unicode="&#xe920;" d="M645.973 468.907h-176.64c-8.954 0-16.213 7.259-16.213 16.213s7.259 16.213 16.213 16.213h177.067c8.954 0 16.213-7.259 16.213-16.213s-7.259-16.213-16.213-16.213v0z" />
<glyph unicode="&#xe921;" glyph-name="printania-carte-printania" d="M928.768 789.333h-31.061c18.516-19.017 34.889-40.278 48.63-63.293l0.863-1.56c-30.196-47.811-70.524-86.611-118.173-114.157l-1.635-0.872c-23.242 47.859-58.218 86.888-101.281 114.362l-1.119 0.668c30.116 17.798 55.803 39.355 77.493 64.461l0.331 0.392h-57.003c-20.689-18.93-44.421-35.021-70.28-47.379l-1.741-0.749c-13.572-5.948-29.47-10.908-45.997-14.103l-1.449-0.233c17.075-3.097 32.191-7.593 46.565-13.522l-1.509 0.551c51.569-23.045 93.927-58.824 124.275-103.431l0.653-1.017c-19.472-4.532-41.83-7.13-64.796-7.13-34.863 0-68.328 5.987-99.422 16.989l2.085-0.643c-16.784 6.987-31.15 14.764-44.608 23.79l0.917-0.579c8.351-11.333 16.29-24.186 23.163-37.674l0.731-1.58c12.755-31.806 20.153-68.677 20.153-107.277 0-19.4-1.869-38.363-5.436-56.719l0.302 1.863c-46.454 29.91-83.112 71.389-106.426 120.438l-0.753 1.759c-6.174 13.522-11.253 29.299-14.457 45.747l-0.22 1.357c-3.428-17.174-7.907-32.152-13.6-46.516l0.63 1.801c-22.584-51.33-57.648-93.629-101.453-124.299l-0.947-0.629c-4.355 18.993-6.851 40.803-6.851 63.197 0 35.474 6.263 69.484 17.744 100.987l-0.653-2.050c6.699 16.851 14.495 31.351 23.71 44.803l-0.499-0.771c-11.738-8.578-25.097-16.237-39.277-22.354l-1.342-0.515c-31.63-12.619-68.288-19.936-106.654-19.936-19.623 0-38.798 1.914-57.35 5.566l1.871-0.307c29.191 45.925 69.29 82.523 116.759 106.74l1.684 0.78c13.317 5.646 29.174 10.697 45.565 14.328l1.88 0.35c-16.919 2.967-31.932 7.35-46.207 13.167l1.492-0.538c-27.143 12.622-50.519 27.915-71.36 46.047l0.362-0.309h-47.445c19.095-24.078 41.67-44.372 67.168-60.452l1.099-0.647c-47.088-27.554-84.904-66.355-110.508-112.829l-0.767-1.518c-45.835 28.881-83.103 67.351-109.754 112.8l-0.838 1.547c14.443 23.11 30.564 43.138 48.768 61.057l0.043 0.042h-25.6c-0.102 0-0.222 0.001-0.342 0.001-52.407 0-94.891-42.484-94.891-94.891 0-0.12 0-0.24 0.001-0.36v0.018-492.203c0-0.102-0.001-0.222-0.001-0.342 0-52.407 42.484-94.891 94.891-94.891 0.12 0 0.24 0 0.36 0.001h833.518c0.102 0 0.222-0.001 0.342-0.001 52.407 0 94.891 42.484 94.891 94.891 0 0.12 0 0.24-0.001 0.36v-0.018 492.203c0 0.102 0.001 0.222 0.001 0.342 0 52.407-42.484 94.891-94.891 94.891-0.12 0-0.24 0-0.36-0.001h0.018zM208.896 428.203c-4.902 21.999-7.71 47.266-7.71 73.189 0 33.481 4.685 65.869 13.435 96.542l-0.604-2.478c26.705-9.585 57.516-15.126 89.622-15.126 22.212 0 43.805 2.652 64.479 7.657l-1.865-0.381c-7.071-24.088-11.14-51.761-11.14-80.384s4.068-56.296 11.658-82.472l-0.519 2.088c-22.798-5.62-48.97-8.844-75.896-8.844-28.94 0-57.009 3.724-83.756 10.72l2.297-0.51zM507.563 286.208c-47.071 30.83-85.192 71.57-112.095 119.457l-0.886 1.716c47.175 23.327 85.542 58.298 112.311 101.246l0.67 1.154c26.812-47.856 65.225-86.379 111.533-112.569l1.448-0.754c-28.747-45.426-66.701-82.507-111.469-109.408l-1.512-0.843zM642.048 430.251c9.032 26.43 14.247 56.878 14.247 88.545 0 23.327-2.83 45.994-8.164 67.675l0.403-1.937c23.729-6.984 50.99-11.003 79.189-11.003s55.46 4.018 81.241 11.514l-2.052-0.511c6.074-24.090 9.559-51.744 9.559-80.213s-3.485-56.124-10.052-82.561l0.493 2.348c-21.163-4.784-45.467-7.526-70.412-7.526-33.671 0-66.175 4.995-96.812 14.285l2.359-0.615zM880.981 233.643h-68.267c-0.103-0.002-0.224-0.004-0.345-0.004-8.483 0-15.36 6.877-15.36 15.36 0 0.121 0.001 0.242 0.004 0.363v-0.018c-0.002 0.102-0.004 0.221-0.004 0.341 0 8.672 7.030 15.701 15.701 15.701 0.001 0 0.003 0 0.004 0h68.266c8.712-0.191 15.701-7.299 15.701-16.039 0-0.001 0-0.003 0-0.004v0c0-0.004 0-0.010 0-0.015 0-8.672-7.030-15.701-15.701-15.701-0.24 0-0.479 0.005-0.716 0.016l0.034-0.001zM880.981 297.472h-136.533c-0.001 0-0.002 0-0.004 0-8.483 0-15.36 6.877-15.36 15.36 0 0.12 0.001 0.24 0.004 0.359v-0.018c-0.002 0.103-0.004 0.224-0.004 0.345 0 8.553 6.839 15.509 15.346 15.697h136.551c0.001 0 0.002 0 0.004 0 8.672 0 15.701-7.030 15.701-15.701 0-0.12-0.001-0.24-0.004-0.359v0.018c0.003-0.112 0.005-0.244 0.005-0.376 0-8.483-6.877-15.36-15.36-15.36-0.362 0-0.721 0.013-1.077 0.037l0.048-0.003z" />
<glyph unicode="&#xe922;" glyph-name="printania-click-and-collect" d="M432.64 513.707h-225.707c-11.782 0-21.333 9.551-21.333 21.333v0c0 0.001 0 0.003 0 0.004 0 11.546 9.36 20.907 20.907 20.907 0.15 0 0.3-0.002 0.449-0.005h225.685c11.546 0 20.907-9.36 20.907-20.907v0c0-0.001 0-0.003 0-0.004 0-11.632-9.31-21.090-20.884-21.329h-0.022zM390.4 410.453h-267.947c-11.782 0-21.333 9.551-21.333 21.333s9.551 21.333 21.333 21.333v0h267.947c11.782 0 21.333-9.551 21.333-21.333s-9.551-21.333-21.333-21.333v0zM360.533 306.773h-338.773c-11.782 0-21.333 9.551-21.333 21.333s9.551 21.333 21.333 21.333v0h338.773c11.782 0 21.333-9.551 21.333-21.333s-9.551-21.333-21.333-21.333v0zM994.133 651.093c-0.242 29.271-24.026 52.907-53.332 52.907-0.001 0-0.001 0-0.002 0h-49.067c0 97.28-61.013 176.64-150.613 176.64s-150.187-78.080-150.613-176.64h-49.92c-0.131 0.001-0.287 0.002-0.442 0.002-29.241 0-53.030-23.346-53.744-52.416l-0.001-0.066-38.827-462.507c0 0 0-0.001 0-0.002 0-29.926 24.26-54.187 54.187-54.187 0.15 0 0.3 0.001 0.45 0.002h308.457v200.96c0 21.208 17.192 38.4 38.4 38.4v0c0.234 0.005 0.51 0.009 0.787 0.009 10.458 0 19.882-4.426 26.501-11.508l0.019-0.021 147.627-144.64zM634.027 704c0 72.96 42.667 131.84 107.093 131.84s106.24-57.6 106.667-131.84zM1013.333 164.693h-61.013l13.227-30.293 18.773-42.667c0.428-1.11 0.676-2.395 0.676-3.737 0-4.113-2.327-7.682-5.737-9.462l-0.059-0.028-28.587-11.52h-3.84c-4.078 0.174-7.569 2.525-9.358 5.913l-0.029 0.060-27.307 64.427-2.987 6.827-7.253-6.827-42.667-42.667c-1.854-1.861-4.419-3.012-7.253-3.012-5.655 0-10.24 4.585-10.24 10.24 0 0.009 0 0.018 0 0.027v-0.001 233.813c0 0.007 0 0.016 0 0.025 0 5.655 4.585 10.24 10.24 10.24 2.834 0 5.399-1.151 7.253-3.012v0l162.56-161.28c1.973-1.801 3.206-4.384 3.206-7.256 0-5.347-4.276-9.695-9.595-9.811h-0.011z" />
<glyph unicode="&#xe923;" glyph-name="printania-cumuler-des-points" d="M887.369 585.216v73.728c0 0.087 0.001 0.191 0.001 0.295 0 44.714-36.082 81.001-80.719 81.333h-29.288c18.565-17.514 34.491-37.539 47.306-59.596l0.675-1.259c-26.043-40.759-60.573-73.885-101.283-97.548l-1.409-0.756c-20.072 40.838-50.016 74.162-86.81 97.728l-0.961 0.576c27.584 16.16 50.867 36.459 69.826 60.345l0.391 0.51h-49.445c-19.336-18.307-41.624-33.768-66.022-45.547l-1.562-0.68c-11.839-5.029-25.762-9.28-40.206-12.072l-1.339-0.216c14.698-2.916 27.629-6.959 39.928-12.198l-1.308 0.495c45.363-20.076 82.657-51.355 109.44-90.408l0.567-0.875c-16.548-3.795-35.551-5.971-55.062-5.971-31.363 0-61.413 5.621-89.198 15.91l1.778-0.577c-14.659 5.887-27.279 12.763-38.958 20.896l0.631-0.416c7.021-10.301 13.664-22.111 19.284-34.485l0.611-1.502c11.074-27.73 17.496-59.87 17.496-93.509 0-17.219-1.683-34.045-4.893-50.322l0.27 1.641c-40.508 26.45-72.501 62.856-92.955 105.815l-0.668 1.559c-5.096 11.685-9.532 25.478-12.607 39.776l-0.266 1.477c-2.656-14.86-6.512-28.018-11.599-40.545l0.481 1.34c-20.225-45.259-51.589-82.448-90.687-109.142l-0.887-0.572c-3.788 16.542-5.959 35.539-5.959 55.042 0 31.369 5.616 61.426 15.898 89.221l-0.577-1.781c6.202 14.773 12.962 27.371 20.747 39.236l-0.56-0.909c-10.292-7.281-22.020-13.935-34.397-19.385l-1.297-0.51c-27.946-11.188-60.34-17.677-94.25-17.677-17.057 0-33.731 1.642-49.871 4.776l1.639-0.265c26.428 40.699 62.832 72.878 105.82 93.535l1.554 0.673c12.073 5.506 26.119 9.878 40.789 12.43l1.048 0.151c-15.118 2.95-28.354 6.893-41.025 11.948l1.528-0.538c-26.287 11.693-48.887 26.515-68.688 44.38l0.227-0.201h-40.667c17.325-23.122 38.066-42.559 61.686-57.949l0.925-0.565c-40.304-23.463-72.769-56.397-95.011-95.86l-0.66-1.274c-39.014 24.767-70.884 57.385-94.066 95.833l-0.728 1.301c13.803 22.218 29.472 41.423 47.28 58.404l0.117 0.111h-29.257c-44.38-0.495-80.167-36.587-80.167-81.038 0-0.207 0.001-0.415 0.002-0.622v0.032-421.888c-0.001-0.174-0.002-0.38-0.002-0.586 0-44.656 36.118-80.877 80.736-81.042h725.886c44.668 0.331 80.75 36.618 80.75 81.333 0 0.104 0 0.207-0.001 0.311v-0.016 49.152c76.997 7.022 136.849 71.273 136.849 149.504s-59.852 142.482-136.263 149.461l-0.586 0.043zM179.931 420.498c-4.423 19.253-6.957 41.362-6.957 64.063 0 28.646 4.036 56.35 11.571 82.573l-0.518-2.106c23.019-8.411 49.595-13.276 77.307-13.276 18.972 0 37.411 2.28 55.059 6.581l-1.586-0.327c-5.825-20.662-9.174-44.39-9.174-68.901s3.349-48.239 9.614-70.752l-0.44 1.852c-20.073-5.133-43.116-8.079-66.847-8.079-24.159 0-47.605 3.053-69.974 8.796l1.945-0.424zM443.246 298.496c-40.49 26.472-73.27 61.497-96.374 102.681l-0.76 1.474c40.552 19.952 73.54 49.936 96.56 86.786l0.574 0.985c23.256-40.814 56.233-73.697 95.878-96.186l1.255-0.655c-24.934-39.41-58.099-71.453-97.257-94.362l-1.339-0.724zM706.56 418.158c-18.919-4.559-40.639-7.173-62.97-7.173-28.025 0-55.088 4.117-80.617 11.78l1.983-0.511c8.176 23.244 12.9 50.044 12.9 77.948 0 19.254-2.249 37.982-6.498 55.937l0.328-1.642c20.379-6.057 43.794-9.542 68.023-9.542s47.644 3.485 69.771 9.982l-1.748-0.44c4.189-18.558 6.59-39.871 6.59-61.745 0-26.307-3.472-51.803-9.983-76.054l0.467 2.046zM889.125 322.194h-11.41c-63.017 0-114.103 51.086-114.103 114.103s51.086 114.103 114.103 114.103v0h11.41c57.854-6.055 102.562-54.565 102.562-113.518s-44.708-107.463-102.068-113.476l-0.494-0.042zM958.757 435.712c0.002-0.088 0.003-0.192 0.003-0.295 0-8.402-6.811-15.214-15.214-15.214-0.104 0-0.208 0.001-0.311 0.003h-53.233v-54.126c0-0.001 0-0.002 0-0.003 0-8.623-6.908-15.632-15.491-15.796h-0.015c-0.001 0-0.002 0-0.003 0-8.564 0-15.506 6.942-15.506 15.506 0 0.103 0.001 0.206 0.003 0.308v-0.015 52.663h-49.737c-7.754 1.093-13.654 7.684-13.654 15.653s5.9 14.56 13.57 15.643l0.084 0.010h49.737v51.785c0 0.001 0 0.002 0 0.003 0 8.623 6.908 15.632 15.491 15.796h0.015c8.534-0.319 15.351-7.238 15.506-15.784v-50.337h53.248c0.090 0.002 0.197 0.003 0.304 0.003 8.402 0 15.214-6.811 15.214-15.214 0-0.207-0.004-0.413-0.012-0.618l0.001 0.029z" />
<glyph unicode="&#xe924;" d="M942.373 857.6h-26.624c15.871-16.3 29.905-34.524 41.683-54.251l0.74-1.337c-25.882-40.981-60.449-74.238-101.291-97.849l-1.401-0.747c-19.922 41.022-49.901 74.475-86.812 98.024l-0.959 0.572c25.813 15.256 47.831 33.733 66.422 55.252l0.284 0.336h-48.859c-17.733-16.225-38.076-30.018-60.24-40.61l-1.492-0.642c-11.633-5.098-25.26-9.35-39.426-12.088l-1.242-0.2c14.635-2.655 27.592-6.508 39.913-11.59l-1.293 0.472c44.202-19.753 80.508-50.421 106.522-88.655l0.56-0.872c-16.69-3.885-35.855-6.112-55.539-6.112-29.883 0-58.567 5.132-85.219 14.562l1.787-0.551c-14.386 5.989-26.7 12.654-38.235 20.392l0.786-0.497c7.158-9.714 13.963-20.731 19.854-32.292l0.626-1.354c10.933-27.262 17.274-58.866 17.274-91.952 0-16.628-1.602-32.882-4.66-48.617l0.258 1.597c-39.818 25.637-71.238 61.19-91.222 103.233l-0.645 1.508c-5.292 11.59-9.646 25.114-12.392 39.212l-0.189 1.163c-2.939-14.721-6.778-27.559-11.657-39.871l0.54 1.544c-19.358-43.997-49.413-80.254-86.959-106.542l-0.812-0.539c-3.733 16.28-5.872 34.974-5.872 54.169 0 30.406 5.368 59.558 15.209 86.56l-0.56-1.757c5.742 14.444 12.424 26.873 20.322 38.403l-0.428-0.661c-10.061-7.353-21.512-13.917-33.666-19.161l-1.15-0.442c-27.112-10.816-58.532-17.088-91.418-17.088-16.819 0-33.256 1.641-49.157 4.771l1.604-0.263c25.021 39.365 59.391 70.734 100.079 91.492l1.443 0.668c11.414 4.839 25.006 9.169 39.056 12.281l1.611 0.3c-14.502 2.543-27.37 6.3-39.606 11.286l1.279-0.461c-23.265 10.819-43.302 23.927-61.166 39.469l0.311-0.265h-40.667c16.367-20.638 35.717-38.033 57.573-51.816l0.942-0.554c-40.361-23.618-72.775-56.875-94.721-96.71l-0.657-1.301c-39.287 24.755-71.231 57.729-94.075 96.686l-0.718 1.326c12.38 19.809 26.198 36.976 41.801 52.334l0.037 0.036h-21.943c-0.087 0-0.19 0.001-0.293 0.001-44.92 0-81.335-36.415-81.335-81.335 0-0.103 0-0.206 0.001-0.309v0.016-327.973c19.23 6.678 41.394 10.535 64.459 10.535 0.379 0 0.757-0.001 1.135-0.003h-0.058c107.834-0.097 196.798-80.756 209.959-185.031l0.108-1.044h520.485c0.087 0 0.19-0.001 0.293-0.001 44.92 0 81.335 36.415 81.335 81.335 0 0.103 0 0.206-0.001 0.309v-0.016 421.888c0 0.087 0.001 0.19 0.001 0.293 0 44.92-36.415 81.335-81.335 81.335-0.103 0-0.206 0-0.309-0.001h0.016zM325.339 548.059c-4.202 18.857-6.609 40.514-6.609 62.733 0 28.698 4.016 56.459 11.515 82.75l-0.518-2.124c22.89-8.216 49.299-12.965 76.819-12.965 19.039 0 37.547 2.273 55.267 6.563l-1.599-0.327c-6.061-20.647-9.548-44.367-9.548-68.901s3.487-48.254 9.993-70.691l-0.444 1.79c-19.541-4.817-41.975-7.581-65.054-7.581-24.805 0-48.865 3.192-71.791 9.189l1.969-0.437zM581.339 426.35c-40.347 26.425-73.021 61.346-96.082 102.392l-0.759 1.471c40.436 19.994 73.322 49.97 96.266 86.782l0.575 0.989c22.982-41.020 55.907-74.039 95.6-96.488l1.241-0.646c-24.641-38.936-57.173-70.72-95.545-93.778l-1.296-0.722zM696.613 549.815c7.742 22.654 12.211 48.753 12.211 75.895 0 19.995-2.425 39.423-6.998 58.007l0.345-1.66c20.339-5.987 43.705-9.431 67.877-9.431s47.537 3.444 69.635 9.869l-1.759-0.438c5.206-20.648 8.193-44.352 8.193-68.754s-2.987-48.106-8.616-70.767l0.423 2.012c-18.14-4.101-38.972-6.451-60.353-6.451-28.861 0-56.721 4.282-82.981 12.244l2.022-0.527zM901.413 381.294h-58.514c-0.088-0.002-0.192-0.003-0.296-0.003-7.271 0-13.166 5.894-13.166 13.166 0 0.104 0.001 0.208 0.004 0.311v-0.015c-0.002 0.087-0.003 0.19-0.003 0.293 0 7.433 6.025 13.458 13.458 13.458 0.001 0 0.002 0 0.003 0h58.514c7.467-0.164 13.458-6.256 13.458-13.748 0-0.001 0-0.002 0-0.003v0c0-0.004 0-0.008 0-0.013 0-7.433-6.025-13.458-13.458-13.458-0.206 0-0.411 0.005-0.614 0.014l0.029-0.001zM901.413 436.005h-117.029c-0.001 0-0.002 0-0.003 0-7.271 0-13.166 5.894-13.166 13.166 0 0.103 0.001 0.205 0.004 0.308v-0.015c-0.002 0.088-0.003 0.192-0.003 0.296 0 7.331 5.862 13.293 13.154 13.455h117.044c0.001 0 0.002 0 0.003 0 7.433 0 13.458-6.025 13.458-13.458 0-0.103-0.001-0.205-0.003-0.308v0.015c0.003-0.096 0.004-0.209 0.004-0.322 0-7.271-5.894-13.166-13.166-13.166-0.31 0-0.618 0.011-0.923 0.032l0.041-0.002z" />
<glyph unicode="&#xe925;" d="M423.936 250.222c0-0.046 0-0.1 0-0.154 0-117.147-94.967-212.114-212.114-212.114s-212.114 94.967-212.114 212.114c0 93.722 60.784 173.247 145.081 201.304l1.498 0.432c19.23 6.678 41.394 10.535 64.459 10.535 0.379 0 0.757-0.001 1.135-0.003h-0.058c107.657-0.059 196.526-80.422 209.955-184.43l0.112-1.060c1.305-7.692 2.051-16.553 2.051-25.588 0-0.364-0.001-0.728-0.004-1.091v0.056z" />
<glyph unicode="&#xe926;" d="M170.277 171.52c-5.307 0.004-10.088 2.249-13.449 5.841l-0.010 0.010-55.003 57.051c-3.344 3.381-5.41 8.032-5.41 13.166s2.066 9.785 5.412 13.167l-0.002-0.002c3.334 3.327 7.937 5.385 13.019 5.385s9.685-2.057 13.020-5.385v0l41.838-43.593 107.959 112.347c3.371 3.483 8.089 5.645 13.312 5.645 10.227 0 18.518-8.291 18.518-18.518 0-5.005-1.985-9.545-5.211-12.878l0.005 0.005-121.417-125.806c-3.052-3.673-7.504-6.092-12.526-6.434l-0.055-0.003z" />
<glyph unicode="&#xe927;" glyph-name="printania-editer" d="M112.213 280.32l-42.667-107.947 149.333-146.347 111.787 37.973c10.148 3.853 17.229 13.496 17.229 24.793 0 3.517-0.686 6.874-1.933 9.944l0.064-0.177c-0.85 4.363-2.486 8.232-4.765 11.634l0.072-0.114-183.467 179.627c-4.862 4.852-11.574 7.853-18.987 7.853s-14.124-3-18.987-7.853v0c-3.421-2.286-6.071-5.485-7.63-9.251l-0.050-0.136zM777.813 936.533l-35.413-34.987 222.293-217.6 35.413 34.987c14.119 13.671 22.883 32.798 22.883 53.973s-8.764 40.303-22.863 53.954l-0.020 0.019-111.787 111.787c-14.102 13.326-33.177 21.518-54.166 21.518-22.060 0-42.006-9.050-56.329-23.639l-0.012-0.012zM164.693 335.36l536.32 526.507 222.293-218.027-536.747-526.507-221.867 218.027zM754.773-21.333v-42.667h-754.773v42.667h4.267c-0.913 2.477-1.441 5.337-1.441 8.32s0.528 5.843 1.495 8.492l-0.055-0.172 42.667 113.92 107.093-105.387-66.56-25.173z" />
<glyph unicode="&#xe928;" glyph-name="printania-personal-shopper" d="M415.573 505.6c75.171 4.030 140.025 44.756 177.375 104.452l0.545 0.934c22.336 33.622 35.64 74.923 35.64 119.332 0 13.163-1.169 26.054-3.408 38.573l0.196-1.318c-14.557 89.811-79.723 161.264-164.793 184.794l-1.607 0.379-37.12 7.253h-42.667l-26.027-4.693c-104.794-21.699-182.437-113.243-182.437-222.921 0-125.597 101.816-227.413 227.413-227.413 5.944 0 11.835 0.228 17.664 0.676l-0.774-0.048zM631.467 401.92h28.16c5.841 29.442 17.617 55.434 34.080 77.757l-0.374-0.531c-11.434 7.924-24.507 14.95-38.355 20.443l-1.325 0.463c-10.446 3.959-22.682 7.094-35.357 8.856l-0.909 0.104c-5.065 0.813-10.905 1.278-16.853 1.278s-11.788-0.465-17.485-1.359l0.631 0.082c-10.548-3.062-19.755-7.281-28.172-12.634l0.438 0.261c-10.667-7.68-21.333-14.080-32.427-21.333-34.469-22.573-76.652-36.074-121.976-36.266h-12.85c-38.141 3.838-72.686 16.52-102.421 35.949l0.874-0.536c-13.653 8.533-26.453 17.92-42.667 25.6-8.086 4.914-17.601 8.379-27.777 9.77l-0.383 0.043h-16.64c-64.853 3.413-199.68-47.36-199.68-290.56 0-88.32-23.893-221.867 372.053-227.413h27.307c28.16 0 54.187 0 78.080 0s49.067 2.987 73.387 5.547l24.32 351.147c1.631 29.793 26.187 53.333 56.241 53.333 0.028 0 0.056 0 0.084 0h-0.004zM996.693 347.307c-0.865 6.899-6.614 12.207-13.637 12.373h-63.164c0.045 1.402 0.071 3.051 0.071 4.706 0 41.663-16.271 79.526-42.806 107.58l0.069-0.073c-16.278 16.616-38.947 26.916-64.022 26.916-0.892 0-1.782-0.013-2.668-0.039l0.13 0.003c-1.045 0.043-2.272 0.067-3.505 0.067-25.526 0-48.605-10.474-65.174-27.36l-0.014-0.014c-5.146-5.201-9.784-10.924-13.823-17.076l-0.257-0.417c-18.793-25.98-30.346-58.286-31.143-93.248l-0.003-0.192h-65.28c-7.039-0.167-12.789-5.474-13.646-12.304l-0.007-0.069-23.467-341.333-3.84-54.613c0-7.541 6.113-13.653 13.653-13.653v0h407.040c7.177 0.448 12.828 6.378 12.828 13.628 0 0.309-0.010 0.616-0.030 0.92l0.002-0.041zM776.96 359.68h-35.413c0.538 19.227 5.366 37.207 13.552 53.18l-0.326-0.7c5.418 10.427 11.809 19.405 19.264 27.375l-0.064-0.069c8.765 8.984 20.992 14.556 34.521 14.556 0.764 0 1.524-0.018 2.28-0.053l-0.107 0.004c0.503 0.019 1.094 0.030 1.687 0.030 12.984 0 24.748-5.225 33.304-13.688l-0.004 0.004c18.060-20.076 29.106-46.775 29.106-76.055 0-1.613-0.034-3.218-0.1-4.814l0.008 0.228z" />
<glyph unicode="&#xe929;" glyph-name="printania-points-shopping" d="M682.667 461.227h-37.12c0 75.52-47.36 137.387-117.333 137.387s-118.187-61.44-118.613-137.387h-38.827c-23.564 0-42.667-19.103-42.667-42.667v0 0l-29.44-359.68c0-23.564 19.103-42.667 42.667-42.667v0h365.227c23.564 0 42.667 19.103 42.667 42.667v0 0l-23.893 360.107c0 23.564-19.103 42.667-42.667 42.667v0zM528.213 563.627c51.2 0 82.773-45.653 83.2-102.4h-166.4c0 56.747 32 102.827 83.2 102.827zM977.493 414.72l-20.48 42.667-20.907-42.667-46.080-9.387 33.28-34.133-7.68-48.64 42.667 23.040 42.667-22.613-8.107 48.213 33.707 34.56zM864.853 713.387l-20.907 42.667-20.48-42.667-46.507-9.387 33.707-34.133-8.107-48.64 42.667 23.040 42.667-23.040-7.68 48.64 33.28 34.133zM532.907 846.507l-20.907 42.667-20.48-42.667-46.080-7.253 33.28-34.133-9.387-48.64 42.667 23.040 42.667-23.040-8.107 48.64 33.707 34.56zM227.413 713.387l-20.48 42.667-20.907-42.667-46.080-9.387 33.28-34.133-7.68-46.507 42.667 23.040 42.667-23.040-10.667 48.64 33.707 32zM87.893 414.72l-20.907 42.667-20.48-42.667-46.507-9.387 33.707-34.133-8.107-46.507 42.667 23.040 42.667-23.040-7.68 48.64 33.28 34.56z" />
<glyph unicode="&#xe92a;" d="M1024 448c0-282.77-229.23-512-512-512s-512 229.23-512 512c0 282.77 229.23 512 512 512s512-229.23 512-512z" />
<glyph unicode="&#xe92b;" d="M636.16 580.693h-29.44c0.271 2.748 0.425 5.939 0.425 9.167 0 52.417-40.741 95.318-92.285 98.763l-0.3 0.016c-51.844-3.462-92.585-46.363-92.585-98.779 0-3.228 0.154-6.419 0.456-9.568l-0.031 0.401h-30.293c-18.38 0-33.28-14.9-33.28-33.28v0l-23.467-283.307c0-0.001 0-0.002 0-0.003 0-18.144 14.709-32.853 32.853-32.853 0.15 0 0.3 0.001 0.449 0.003h286.697c0.127-0.002 0.277-0.003 0.427-0.003 18.144 0 32.853 14.709 32.853 32.853 0 0.001 0 0.002 0 0.003v0l-19.627 283.307c0.002 0.128 0.003 0.278 0.003 0.429 0 17.995-14.468 32.611-32.407 32.85h-0.023zM514.56 661.333c40.107 0 64.853-36.267 65.28-80.64h-130.56c0 42.667 25.173 80.64 65.28 80.64z" />
<glyph unicode="&#xe92c;" d="M531.627 859.307l-19.627 42.667-19.627-42.667-42.667-6.827 31.573-32-7.68-45.653 38.4 21.76 38.827-21.76-7.253 45.653 31.147 32.427z" />
<glyph unicode="&#xe92d;" d="M830.72 738.987l-19.627 42.667-19.2-42.667-42.667-6.827 31.573-32-7.253-45.653 37.12 21.76 38.827-21.333-7.68 45.227 31.573 32.427z" />
<glyph unicode="&#xe92e;" d="M932.693 469.76l-19.627 42.667-19.2-42.667-42.667-6.827 31.573-32.427-7.253-45.227 38.827 21.333 38.827-21.333-7.68 45.653 31.573 32.427z" />
<glyph unicode="&#xe92f;" d="M830.72 218.027l-19.627 42.667-19.2-42.667-42.667-6.827 31.573-32-7.253-45.653 38.827 21.76 38.827-21.333-7.68 45.227 31.573 32.427z" />
<glyph unicode="&#xe930;" d="M549.547 97.707l-19.627 42.667-19.2-42.667-42.667-6.4 31.573-32.427-7.68-45.227 38.827 21.333 39.253-21.333-7.68 45.653 31.573 32.427z" />
<glyph unicode="&#xe931;" d="M256 200.107l-19.627 42.667-19.2-42.667-42.667-6.827 31.573-32-7.68-45.653 38.827 21.76 39.253-21.333-7.68 45.227 29.867 30.72z" />
<glyph unicode="&#xe932;" d="M128 469.76l-19.627 42.667-19.2-42.667-42.667-6.4 31.573-32.427-7.253-45.227 38.827 21.333 38.827-21.333-6.827 45.227 31.573 32z" />
<glyph unicode="&#xe933;" d="M256 738.987l-19.627 42.667-19.2-42.667-42.667-6.827 31.573-32-8.533-45.653 38.827 21.76 39.253-21.333-7.68 45.227 30.72 32.427z" />
<glyph unicode="&#xe934;" d="M311.040 738.133c57.173-2.987 114.347-4.267 170.667-8.96 41.733-4.25 78.797-10.415 115.055-18.695l-6.255 1.202c27.307-5.547 29.867-11.093 29.867-38.4 0-9.387 0-18.347 0-27.307-0.071-23.046-14.866-42.618-35.469-49.807l-0.371-0.113c-40.333-14.485-87.237-25.046-135.868-29.684l-2.372-0.183c-41.107-4.746-88.742-7.454-137.009-7.454-18.14 0-36.19 0.382-54.143 1.14l2.565-0.086c-74.192 0.934-145.442 11.936-212.952 31.696l5.592-1.403-19.2 7.253c-18.457 8.36-31.079 26.591-31.147 47.778v0.009c0 12.373 0 25.173 0 37.547-0.174 1.034-0.274 2.226-0.274 3.44 0 10.453 7.37 19.184 17.198 21.281l0.143 0.025c16.148 5.175 36.265 10.065 56.828 13.659l2.905 0.421c70.006 10.149 151.203 16.182 233.72 16.638l0.52 0.002zM298.667 709.12c-14.933 0-42.667-3.413-66.987-7.253-11.173-1.793-21.213-5.069-30.484-9.663l0.617 0.277c-7.253-3.413-7.253-8.533 0-12.373 4.781-2.763 10.309-5.094 16.136-6.708l0.504-0.119c27.562-6.132 59.22-9.644 91.697-9.644 26.088 0 51.647 2.267 76.49 6.614l-2.641-0.383c13.24 2.415 24.976 5.964 36.108 10.66l-1.122-0.42c7.253 2.987 6.827 8.533 0 12.373-4.872 2.652-10.536 4.978-16.465 6.679l-0.602 0.148c-29.105 6.267-62.542 9.856-96.817 9.856-2.263 0-4.523-0.016-6.779-0.047l0.342 0.004z" />
<glyph unicode="&#xe935;" d="M309.333-64c-2.725-0.027-5.945-0.042-9.169-0.042-60.837 0-120.402 5.448-178.232 15.884l6.068-0.908c-36.839 7.275-67.637 15.385-97.695 25.14l5.962-1.673c-21.178 6.596-36.285 26.024-36.285 48.979 0 0.481 0.007 0.96 0.020 1.438l-0.002-0.070v35.413c0 20.48 11.093 27.733 31.147 21.76 33.707-9.387 67.413-20.053 101.973-26.88 52.642-11.121 113.129-17.489 175.102-17.489 19.305 0 38.466 0.618 57.464 1.835l-2.593-0.133c74.328 3.6 144.32 16.136 210.845 36.586l-6.045-1.599 25.6 8.533c2.472 1.324 5.408 2.102 8.526 2.102 7.334 0 13.663-4.304 16.6-10.523l0.047-0.112c1.361-2.822 2.157-6.137 2.157-9.638 0-0.362-0.008-0.722-0.025-1.079l0.002 0.051c0-13.227 0-26.453 0-40.107-0.434-22.72-15.36-41.841-35.899-48.536l-0.368-0.104c-41.511-15.283-89.644-26.039-139.657-30.161l-1.997-0.132c-42.667-3.84-89.173-5.547-133.547-8.533z" />
<glyph unicode="&#xe936;" d="M326.4 273.92c-3.901-0.058-8.506-0.091-13.118-0.091-92.908 0-182.678 13.437-267.473 38.474l6.671-1.689c-13.379 2.35-23.885 12.426-26.837 25.377l-0.043 0.223c-0.519 2.172-0.816 4.667-0.816 7.23 0 15.323 10.629 28.164 24.916 31.552l0.22 0.044c2.309 0.511 4.96 0.803 7.68 0.803s5.371-0.293 7.925-0.848l-0.245 0.045c26.88-6.4 53.333-13.653 80.213-19.2 52.829-10.273 113.58-16.15 175.704-16.15 28.265 0 56.245 1.217 83.892 3.6l-3.597-0.25c48.864 3.431 94.055 10.555 137.867 21.203l-5.6-1.15 18.773 5.547c2.899 0.942 6.236 1.484 9.699 1.484 14.321 0 26.474-9.284 30.768-22.162l0.066-0.229c1.045-2.982 1.649-6.42 1.649-10 0-13.828-9.011-25.551-21.482-29.618l-0.22-0.062h-2.133c-23.156-6.775-53.238-13.599-83.85-18.868l-5.323-0.758c-46.143-8.353-99.77-13.593-154.452-14.496l-0.855-0.011z" />
<glyph unicode="&#xe937;" d="M326.4 179.627c-4.34-0.072-9.46-0.113-14.589-0.113-92.371 0-181.639 13.288-265.996 38.057l6.665-1.678c-13.224 2.667-23.579 12.595-26.828 25.361l-0.052 0.239c-0.519 2.172-0.816 4.667-0.816 7.23 0 15.323 10.629 28.164 24.916 31.552l0.22 0.044c2.305 0.611 4.952 0.962 7.68 0.962s5.375-0.351 7.897-1.010l-0.217 0.048c26.88-6.4 53.333-13.653 80.213-19.2 52.829-10.273 113.58-16.15 175.704-16.15 28.265 0 56.245 1.217 83.892 3.6l-3.597-0.25c48.586 3.227 93.656 10.207 137.338 20.747l-5.498-1.12 19.2 5.547c3.014 1.037 6.486 1.635 10.098 1.635 14.14 0 26.138-9.171 30.37-21.889l0.065-0.226c1.037-2.949 1.636-6.35 1.636-9.891 0-13.743-9.025-25.379-21.471-29.303l-0.218-0.059h-2.133c-29.44-7.253-58.88-14.507-89.173-19.627-46.131-8.337-99.757-13.576-154.434-14.495l-0.872-0.012z" />
<glyph unicode="&#xe938;" d="M318.72 459.093c-2.216-0.019-4.835-0.030-7.458-0.030-92.971 0-182.773 13.572-267.531 38.843l6.615-1.693c-14.751 3.424-25.579 16.445-25.6 31.998v0.002c-0.006 0.222-0.009 0.484-0.009 0.746 0 14.403 9.644 26.553 22.826 30.346l0.223 0.055c3.077 0.712 6.611 1.12 10.24 1.12s7.163-0.408 10.558-1.181l-0.318 0.061c38.4-8.107 76.373-17.92 114.773-24.32 41.222-6.538 88.753-10.273 137.157-10.273 28.019 0 55.745 1.251 83.126 3.702l-3.536-0.255c49.387 2.938 95.503 10.085 140.069 21.155l-5.242-1.102 20.053 5.12c3.264 1.175 7.029 1.854 10.954 1.854 14.775 0 27.301-9.628 31.646-22.952l0.066-0.235c1.111-3.091 1.753-6.657 1.753-10.373 0-13.629-8.635-25.241-20.733-29.663l-0.219-0.070h-2.987c-29.867-7.68-60.16-14.933-90.453-20.053-49.119-8.147-105.719-12.803-163.406-12.803-0.903 0-1.805 0.001-2.707 0.003h0.14z" />
<glyph unicode="&#xe939;" d="M341.333 366.080c-4.040-0.059-8.81-0.093-13.587-0.093-98.836 0-194.314 14.374-284.459 41.145l7.059-1.799c-13.683 4.174-23.465 16.686-23.465 31.483 0 18.144 14.709 32.853 32.853 32.853 1.655 0 3.282-0.122 4.872-0.359l-0.18 0.022h3.84c43-12.893 94.102-23.25 146.571-29.076l4.042-0.364c29.732-3.101 64.237-4.869 99.155-4.869 21.706 0 43.253 0.683 64.619 2.030l-2.922-0.147c51.63 2.366 100.245 8.776 147.452 18.97l-5.799-1.050 31.147 8.533c3.301 1.222 7.115 1.929 11.093 1.929 18.149 0 32.862-14.713 32.862-32.862 0-14.171-8.97-26.247-21.541-30.86l-0.228-0.073h-4.267c-32.185-10.668-69.727-18.518-108.518-22.041l-1.989-0.146c-46.507-8.533-93.44-11.093-118.613-13.227z" />
<glyph unicode="&#xe93a;" d="M334.507 78.933c-4.175-0.064-9.103-0.1-14.039-0.1-95.578 0-187.981 13.593-275.381 38.951l6.967-1.731c-15.661 2.906-27.363 16.461-27.363 32.75 0 1.996 0.176 3.951 0.513 5.851l-0.030-0.201c3.251 14.245 15.813 24.714 30.819 24.714 2.537 0 5.005-0.299 7.369-0.865l-0.215 0.043c25.6-5.547 50.773-13.227 76.8-18.347 51.238-10.801 110.113-16.985 170.432-16.985 12.837 0 25.609 0.28 38.309 0.835l-1.808-0.063c61.031 1.063 119.853 7.692 176.821 19.404l-6.154-1.057c11.947 2.56 23.467 5.973 35.413 9.387 2.366 0.609 5.082 0.959 7.879 0.959 18.144 0 32.853-14.709 32.853-32.853 0-13.271-7.868-24.704-19.194-29.888l-0.205-0.084h-2.987c-34.433-11.124-74.612-19.283-116.094-22.893l-2.092-0.147c-44.8-3.413-90.027-5.547-118.613-7.68z" />
<glyph unicode="&#xe93b;" d="M788.053 872.107v0c2.725 0.772 5.854 1.216 9.086 1.216 16.187 0 29.774-11.128 33.53-26.151l0.050-0.238 11.947-46.933c0.772-2.725 1.216-5.854 1.216-9.086 0-16.187-11.128-29.774-26.151-33.53l-0.238-0.050c-2.844-0.855-6.111-1.347-9.494-1.347-15.998 0-29.425 11.006-33.123 25.859l-0.050 0.235-11.947 49.92c-0.371 1.912-0.583 4.111-0.583 6.36 0 16.038 10.792 29.556 25.51 33.688l0.246 0.059z" />
<glyph unicode="&#xe93c;" d="M1014.613-59.307c-3.391-2.872-7.815-4.618-12.647-4.618-2.833 0-5.526 0.6-7.958 1.681l0.125-0.050c-9.661 2.322-17.089 9.892-19.169 19.458l-0.031 0.169c-7.253 20.907-15.36 42.667-23.040 63.147s-16.213 42.667-23.893 66.133c-12.373 34.56-24.32 69.12-36.693 103.253-8.96 24.747-17.92 49.493-26.453 73.813l-46.080 130.133c-7.253 20.907-14.933 42.667-22.613 62.293s-18.347 52.907-28.16 77.227-20.48 56.32-29.867 85.333c-13.227 37.973-26.027 75.947-37.547 114.347-9.511 27.406-18.099 60.701-24.144 94.874l-0.603 4.112c-0.267 2.973-0.419 6.431-0.419 9.924 0 54.882 37.544 100.995 88.349 114.058l0.817 0.178c10.312 2.755 22.15 4.338 34.359 4.338 4.126 0 8.21-0.181 12.244-0.535l-0.523 0.037c47.017-3.295 86.115-33.936 101.711-75.991l0.263-0.809c8.087-27.705 14.828-60.982 18.903-95.077l0.297-3.056c6.827-38.4 11.093-81.067 16.213-119.040 3.413-29.867 6.4-59.733 9.813-89.6s6.827-55.467 9.813-83.2 4.693-42.667 6.827-65.707c5.12-45.653 10.24-91.307 14.933-136.96 2.987-26.027 5.547-52.053 8.533-78.080l11.52-108.8c2.56-23.467 4.693-46.933 7.253-70.4l7.253-66.56c0.442-1.765 0.696-3.792 0.696-5.878 0-8.213-3.933-15.508-10.019-20.103l-0.064-0.046z" />
<glyph unicode="&#xe93d;" d="M788.053 872.107v0c2.725 0.772 5.854 1.216 9.086 1.216 16.187 0 29.774-11.128 33.53-26.151l0.050-0.238 11.947-46.933c0.772-2.725 1.216-5.854 1.216-9.086 0-16.187-11.128-29.774-26.151-33.53l-0.238-0.050c-2.844-0.855-6.111-1.347-9.494-1.347-15.998 0-29.425 11.006-33.123 25.859l-0.050 0.235-11.947 49.92c-0.371 1.912-0.583 4.111-0.583 6.36 0 16.038 10.792 29.556 25.51 33.688l0.246 0.059z" />
<glyph unicode="&#xe93e;" glyph-name="printania-rosace-noire" d="M859.307 306.347c-37.386 55.745-88.599 99.559-148.815 127.089l-2.225 0.911c-15.558 5.73-33.955 10.488-52.95 13.441l-1.663 0.213c21.978 4.451 41.256 10.489 59.628 18.254l-2.028-0.761c61.428 29.277 111.544 73.777 146.785 128.731l0.842 1.403c-19.162 3.651-41.203 5.74-63.732 5.74-47.582 0-92.988-9.317-134.493-26.226l2.385 0.859c-18.985-8.43-35.237-17.696-50.437-28.361l0.944 0.628c9.689 15.583 18.593 33.583 25.735 52.451l0.718 2.163c13.258 35.941 20.928 77.451 20.928 120.752 0 26.904-2.961 53.116-8.575 78.329l0.447-2.388c-55.031-37.655-98.156-89.002-124.971-149.215l-0.896-2.252c-6.278-15.497-11.466-33.704-14.705-52.577l-0.228-1.609c-4.37 21.762-10.41 40.9-18.227 59.094l0.734-1.921c-28.918 61.231-72.639 111.388-126.678 147.229l-1.322 0.824c-4.183-20.425-6.577-43.9-6.577-67.935 0-46.172 8.836-90.279 24.909-130.725l-0.839 2.393c8.168-18.967 17.305-35.233 27.906-50.399l-0.6 0.906c-15.206 10.326-32.607 19.765-50.935 27.429l-1.971 0.731c-35.774 13.344-77.107 21.066-120.245 21.066-26.939 0-53.175-3.012-78.389-8.717l2.367 0.45c37.597-54.932 88.779-98.029 148.791-124.964l2.249-0.902c15.629-6.608 33.954-12.082 52.982-15.541l1.631-0.246c-21.978-4.451-41.256-10.489-59.628-18.254l2.028 0.761c-61.097-28.92-111.119-72.643-146.802-126.67l-0.825-1.33c20.156-4.088 43.325-6.427 67.041-6.427 46.356 0 90.625 8.939 131.176 25.188l-2.376-0.841c18.941 8.040 35.216 17.184 50.326 27.865l-0.833-0.559c-10.326-15.206-19.765-32.607-27.429-50.935l-0.731-1.971c-13.252-35.865-20.919-77.29-20.919-120.505 0-26.841 2.958-52.991 8.565-78.142l-0.446 2.38c55.745 37.386 99.559 88.599 127.089 148.815l0.911 2.225c6.171 15.454 11.489 33.774 15.062 52.711l0.298 1.902c4.37-21.762 10.41-40.9 18.227-59.094l-0.734 1.921c28.798-61.302 72.547-111.488 126.674-147.231l1.326-0.823c4.088 20.156 6.427 43.325 6.427 67.041 0 46.356-8.939 90.625-25.188 131.176l0.841-2.376c-8.040 18.941-17.184 35.216-27.865 50.326l0.559-0.833c15.206-10.326 32.607-19.765 50.935-27.429l1.971-0.731c36.662-13.894 79.050-21.939 123.317-21.939 25.677 0 50.721 2.707 74.864 7.85l-2.341-0.418zM514.133 717.653c30.706 48.343 73.441 86.558 124.069 111.004l1.797 0.782c-31.241 53.654-73.665 97.579-124.335 129.654l-1.532 0.906c-50.362-30.454-91.643-71.053-121.99-119.233l-0.89-1.514c51.64-29.055 93.333-70.338 122.056-120.054l0.824-1.546zM324.267 638.72c-4.965 20.521-7.813 44.081-7.813 68.306 0 35.124 5.986 68.85 16.994 100.214l-0.648-2.12c-29.937 8.833-64.331 13.915-99.912 13.915-28.254 0-55.76-3.205-82.174-9.27l2.459 0.475c-6.477-25.627-10.194-55.046-10.194-85.333s3.717-59.707 10.72-87.827l-0.526 2.493c25.191 7.199 54.124 11.338 84.024 11.338 31.012 0 60.983-4.453 89.31-12.754l-2.241 0.563zM242.347 448c-48.095 30.167-86.252 72.157-111 121.982l-0.787 1.751c-53.473-30.675-97.359-72.379-129.674-122.274l-0.886-1.46c30.454-50.362 71.053-91.643 119.233-121.99l1.514-0.89c28.929 51.732 70.245 93.457 120.055 122.062l1.545 0.818zM321.28 260.267c-20.521-4.965-44.081-7.813-68.306-7.813-35.124 0-68.85 5.986-100.214 16.994l2.12-0.648c-8.833-29.937-13.915-64.331-13.915-99.912 0-28.254 3.205-55.76 9.27-82.174l-0.475 2.459c25.627-6.477 55.046-10.194 85.333-10.194s59.707 3.717 87.827 10.72l-2.493-0.526c-7.199 25.191-11.338 54.124-11.338 84.024 0 31.012 4.453 60.983 12.754 89.31l-0.563-2.241zM512 178.347c-30.167-48.095-72.157-86.252-121.982-111l-1.751-0.787c30.675-53.473 72.379-97.359 122.274-129.674l1.46-0.886c50.362 30.454 91.643 71.053 121.99 119.233l0.89 1.514c-51.732 28.929-93.457 70.245-122.062 120.055l-0.818 1.545zM699.733 257.28c4.965-20.521 7.813-44.081 7.813-68.306 0-35.124-5.986-68.85-16.994-100.214l0.648 2.12c30.046-8.629 64.556-13.592 100.225-13.592 28.128 0 55.536 3.086 81.903 8.938l-2.502-0.466c6.477 25.627 10.194 55.046 10.194 85.333s-3.717 59.707-10.72 87.827l0.526-2.493c-25.191-7.199-54.124-11.338-84.024-11.338-31.012 0-60.983 4.453-89.31 12.754l2.241-0.563zM903.253 568.747c-29.055-51.64-70.338-93.333-120.054-122.056l-1.546-0.824c48.343-30.706 86.558-73.441 111.004-124.069l0.782-1.797c53.654 31.241 97.579 73.665 129.654 124.335l0.906 1.532c-30.454 50.362-71.053 91.643-119.233 121.99l-1.514 0.89zM702.72 635.733c20.521 4.965 44.081 7.813 68.306 7.813 35.124 0 68.85-5.986 100.214-16.994l-2.12 0.648c8.833 29.937 13.915 64.331 13.915 99.912 0 28.254-3.205 55.76-9.27 82.174l0.475-2.459c-25.627 6.477-55.046 10.194-85.333 10.194s-59.707-3.717-87.827-10.72l2.493 0.526c7.199-25.191 11.338-54.124 11.338-84.024 0-31.012-4.453-60.983-12.754-89.31l0.563 2.241z" />
<glyph unicode="&#xe93f;" glyph-name="printania-rosace-rose" d="M859.307 306.347c-37.386 55.745-88.599 99.559-148.815 127.089l-2.225 0.911c-15.395 5.664-33.64 10.418-52.468 13.427l-1.718 0.226c21.863 4.528 40.99 10.561 59.238 18.267l-2.065-0.774c61.168 28.8 111.221 72.552 146.803 126.666l0.824 1.334c-20.482 4.269-44.018 6.713-68.125 6.713-45.972 0-89.867-8.888-130.062-25.040l2.348 0.833c-18.967-8.168-35.233-17.305-50.399-27.906l0.906 0.6c9.666 15.462 18.565 33.317 25.729 52.032l0.725 2.155c13.258 35.941 20.928 77.451 20.928 120.752 0 26.904-2.961 53.116-8.575 78.329l0.447-2.388c-55.031-37.655-98.156-89.002-124.971-149.215l-0.896-2.252c-6.278-15.497-11.466-33.704-14.705-52.577l-0.228-1.609c-4.37 21.762-10.41 40.9-18.227 59.094l0.734-1.921c-28.918 61.231-72.639 111.388-126.678 147.229l-1.322 0.824c-4.183-20.425-6.577-43.9-6.577-67.935 0-46.172 8.836-90.279 24.909-130.725l-0.839 2.393c8.168-18.967 17.305-35.233 27.906-50.399l-0.6 0.906c-15.206 10.326-32.607 19.765-50.935 27.429l-1.971 0.731c-35.774 13.344-77.107 21.066-120.245 21.066-26.939 0-53.175-3.012-78.389-8.717l2.367 0.45c37.597-54.932 88.779-98.029 148.791-124.964l2.249-0.902c15.629-6.608 33.954-12.082 52.982-15.541l1.631-0.246c-21.762-4.37-40.9-10.41-59.094-18.227l1.921 0.734c-61.302-28.798-111.488-72.547-147.231-126.674l-0.823-1.326c20.156-4.088 43.325-6.427 67.041-6.427 46.356 0 90.625 8.939 131.176 25.188l-2.376-0.841c18.941 8.040 35.216 17.184 50.326 27.865l-0.833-0.559c-10.326-15.206-19.765-32.607-27.429-50.935l-0.731-1.971c-13.252-35.865-20.919-77.29-20.919-120.505 0-26.841 2.958-52.991 8.565-78.142l-0.446 2.38c55.745 37.386 99.559 88.599 127.089 148.815l0.911 2.225c6.171 15.454 11.489 33.774 15.062 52.711l0.298 1.902c4.37-21.762 10.41-40.9 18.227-59.094l-0.734 1.921c28.798-61.302 72.547-111.488 126.674-147.231l1.326-0.823c4.088 20.156 6.427 43.325 6.427 67.041 0 46.356-8.939 90.625-25.188 131.176l0.841-2.376c-8.040 18.941-17.184 35.216-27.865 50.326l0.559-0.833c15.175-10.2 32.569-19.632 50.847-27.384l2.060-0.776c36.662-13.894 79.050-21.939 123.317-21.939 25.677 0 50.721 2.707 74.864 7.85l-2.341-0.418zM514.133 717.653c30.706 48.343 73.441 86.558 124.069 111.004l1.797 0.782c-31.241 53.654-73.665 97.579-124.335 129.654l-1.532 0.906c-50.362-30.454-91.643-71.053-121.99-119.233l-0.89-1.514c51.64-29.055 93.333-70.338 122.056-120.054l0.824-1.546zM324.267 638.72c-4.965 20.521-7.813 44.081-7.813 68.306 0 35.124 5.986 68.85 16.994 100.214l-0.648-2.12c-29.994 8.725-64.448 13.745-100.075 13.745-28.189 0-55.643-3.142-82.033-9.095l2.481 0.471c-6.477-25.627-10.194-55.046-10.194-85.333s3.717-59.707 10.72-87.827l-0.526 2.493c25.191 7.199 54.124 11.338 84.024 11.338 31.012 0 60.983-4.453 89.31-12.754l-2.241 0.563zM242.347 448c-48.095 30.167-86.252 72.157-111 121.982l-0.787 1.751c-53.473-30.675-97.359-72.379-129.674-122.274l-0.886-1.46c30.454-50.362 71.053-91.643 119.233-121.99l1.514-0.89c29.055 51.64 70.338 93.333 120.054 122.056l1.546 0.824zM321.28 260.267c-20.521-4.965-44.081-7.813-68.306-7.813-35.124 0-68.85 5.986-100.214 16.994l2.12-0.648c-8.725-29.994-13.745-64.448-13.745-100.075 0-28.189 3.142-55.643 9.095-82.033l-0.471 2.481c25.627-6.477 55.046-10.194 85.333-10.194s59.707 3.717 87.827 10.72l-2.493-0.526c-7.199 25.191-11.338 54.124-11.338 84.024 0 31.012 4.453 60.983 12.754 89.31l-0.563-2.241zM512 178.347c-30.167-48.095-72.157-86.252-121.982-111l-1.751-0.787c30.675-53.473 72.379-97.359 122.274-129.674l1.46-0.886c50.362 30.454 91.643 71.053 121.99 119.233l0.89 1.514c-51.64 29.055-93.333 70.338-122.056 120.054l-0.824 1.546zM699.733 257.28c4.965-20.521 7.813-44.081 7.813-68.306 0-35.124-5.986-68.85-16.994-100.214l0.648 2.12c29.994-8.725 64.448-13.745 100.075-13.745 28.189 0 55.643 3.142 82.033 9.095l-2.481-0.471c6.477 25.627 10.194 55.046 10.194 85.333s-3.717 59.707-10.72 87.827l0.526-2.493c-25.191-7.199-54.124-11.338-84.024-11.338-31.012 0-60.983 4.453-89.31 12.754l2.241-0.563zM903.253 568.747c-29.055-51.64-70.338-93.333-120.054-122.056l-1.546-0.824c48.343-30.706 86.558-73.441 111.004-124.069l0.782-1.797c53.654 31.241 97.579 73.665 129.654 124.335l0.906 1.532c-30.454 50.362-71.053 91.643-119.233 121.99l-1.514 0.89zM702.72 635.733c20.521 4.965 44.081 7.813 68.306 7.813 35.124 0 68.85-5.986 100.214-16.994l-2.12 0.648c8.833 29.937 13.915 64.331 13.915 99.912 0 28.254-3.205 55.76-9.27 82.174l0.475-2.459c-25.627 6.477-55.046 10.194-85.333 10.194s-59.707-3.717-87.827-10.72l2.493 0.526c7.199-25.191 11.338-54.124 11.338-84.024 0-31.012-4.453-60.983-12.754-89.31l0.563 2.241z" />
<glyph unicode="&#xe940;" glyph-name="printania-salon" d="M1024 514.926c-5.084-11.175-10.824-20.784-17.481-29.665l0.293 0.408c-11.955-14.217-29.751-23.189-49.643-23.189-5.090 0-10.043 0.588-14.795 1.698l0.438-0.086c-3.133 0.829-6.731 1.304-10.439 1.304-18.799 0-34.743-12.228-40.31-29.165l-0.085-0.3c-5.517-14.915-9.069-32.152-9.862-50.106l-0.013-0.363c-0.127-4.552-0.199-9.91-0.199-15.284 0-47.638 5.671-93.951 16.376-138.302l-0.817 4.009c0.83-3.844 1.306-8.26 1.306-12.787 0-13.874-4.466-26.705-12.038-37.133l0.126 0.183c-7.987-13.256-22.304-21.984-38.659-21.984-0.681 0-1.358 0.015-2.031 0.045l0.096-0.003c-13.531 0-27.063 0-42.423 0v-18.286c0-17.92 0-36.571 0-53.394 0.092-0.813 0.144-1.756 0.144-2.712 0-13.159-9.928-23.998-22.702-25.438l-0.117-0.011h-21.577c-0.813-0.090-1.755-0.142-2.71-0.142-13.36 0-24.363 10.090-25.805 23.065l-0.011 0.117c-0.175 0.88-0.275 1.891-0.275 2.926s0.1 2.046 0.291 3.025l-0.016-0.099c0 19.749 0 39.497 0 59.611 0 3.657 0 7.314 0 11.337h-438.491v-56.686c0.176-2.733 0.277-5.926 0.277-9.143s-0.101-6.41-0.299-9.576l0.022 0.433c0.008-0.226 0.012-0.491 0.012-0.757 0-12.343-9.706-22.419-21.902-23.012l-0.053-0.002c-4.167-0.437-9.003-0.686-13.897-0.686s-9.73 0.249-14.496 0.735l0.598-0.049c-13.092 0.793-23.409 11.605-23.409 24.826 0 0.144 0.001 0.287 0.004 0.43v-0.022c0 23.406 0 46.811 0 73.143h-32.914c-2.105-0.282-4.538-0.444-7.009-0.444-28.279 0-51.626 21.116-55.133 48.441l-0.029 0.277c-0.786 3.573-1.236 7.677-1.236 11.886s0.45 8.313 1.305 12.266l-0.069-0.38c9.556 42.837 15.031 92.037 15.031 142.516 0 2.483-0.013 4.962-0.040 7.438l0.003-0.377c-0.073 15.762-2.204 30.995-6.137 45.486l0.285-1.235c-5.149 19.59-22.7 33.804-43.572 33.804-3.746 0-7.384-0.458-10.863-1.321l0.309 0.065c-3.501-0.639-7.531-1.004-11.645-1.004-31.557 0-58.096 21.489-65.78 50.633l-0.106 0.474c-1.268 4.689-1.996 10.073-1.996 15.627 0 25.824 15.744 47.97 38.157 57.364l0.41 0.152c9.676 3.974 20.907 6.282 32.678 6.282 18.838 0 36.296-5.91 50.62-15.977l-0.281 0.187c48.728-32.464 81.896-84.98 87.709-145.486l0.062-0.799c5.851-36.571 7.68-73.143 10.24-109.714 0-20.846 9.509-29.989 29.623-29.989h525.897c19.383 0 28.526 9.509 28.891 29.623-0.007 1.021-0.011 2.228-0.011 3.436 0 54.79 7.885 107.739 22.583 157.773l-0.995-3.952c14.479 45.494 44.954 82.385 84.667 104.852l0.91 0.474c11.506 6.142 25.165 9.749 39.667 9.749 19.545 0 37.559-6.552 51.967-17.58l-0.205 0.151c9.935-9.859 17.409-22.183 21.429-35.98l0.148-0.592zM146.286 618.057c16.038 34.947 36.915 64.836 62.195 90.355l-0.024-0.024c60.594 61.973 140.93 104.417 230.824 117.146l2.136 0.248c22.875 3.949 49.219 6.206 76.091 6.206 81.141 0 157.475-20.58 224.067-56.805l-2.467 1.228c62.625-32.732 112.245-83.058 143.229-144.402l0.863-1.884c0-2.56 2.194-4.754 3.291-6.949-14.263-10.606-28.891-20.114-41.691-31.086-40.081-35.39-67.864-83.887-76.624-138.731l-0.176-1.337c-6.217-34.743-9.874-69.851-14.629-105.691h-484.937c-2.194 23.406-4.023 47.177-6.949 70.217-5.070 45.713-18.56 87.318-38.914 124.642l0.88-1.762c-16.93 28.909-39.411 52.791-66.159 70.827l-0.766 0.487z" />
<glyph unicode="&#xe941;" glyph-name="printania-journees-printania" d="M1024 411.004c0.001 0.104 0.001 0.226 0.001 0.349 0 16.752-5.72 32.168-15.314 44.401l0.118-0.157c-3.464 4.171-7.254 7.857-11.401 11.109l-0.161 0.121c0.317 2.43 0.498 5.24 0.498 8.093s-0.181 5.663-0.532 8.42l0.034-0.327c0.073 0.496 0.115 1.069 0.115 1.652s-0.042 1.155-0.123 1.716l0.008-0.064v198.194c0.024 0.787 0.038 1.714 0.038 2.643 0 50.249-40.651 91.003-90.861 91.169h-38.664c18.059-18.245 33.915-38.727 47.1-60.978l0.797-1.453c-29.122-46.453-68.172-84.128-114.368-110.81l-1.575-0.839c-22.553 46.38-56.383 84.238-98.021 111.002l-1.075 0.647c29.091 16.993 53.861 37.765 74.657 62.041l0.326 0.39h-54.834c-19.91-18.456-42.914-33.954-68.077-45.574l-1.621-0.671c-13.168-6.259-28.464-11.194-44.481-14.041l-1.103-0.163c16.656-3.199 31.272-7.54 45.25-13.134l-1.647 0.582c49.851-22.397 90.819-57 120.266-100.098l0.632-0.98c-19.033-4.602-40.886-7.241-63.354-7.241-33.656 0-65.928 5.922-95.833 16.78l1.953-0.62c-16.048 6.486-29.859 14.025-42.653 22.924l0.702-0.462c7.929-11.408 15.222-24.432 21.221-38.151l0.58-1.488c12.283-30.576 19.408-66.025 19.408-103.138 0-19.137-1.895-37.832-5.506-55.907l0.302 1.811c-44.698 29.255-80.016 69.45-102.65 116.862l-0.741 1.724c-5.975 13.085-10.89 28.354-13.991 44.272l-0.213 1.313c-3.121-16.474-7.465-30.98-13.11-44.817l0.558 1.545c-21.838-49.787-55.773-90.831-98.186-120.622l-0.911-0.606c-4.136 18.286-6.506 39.286-6.506 60.839 0 34.683 6.137 67.934 17.385 98.723l-0.639-1.999c6.573 16.195 14.11 30.11 22.961 43.055l-0.499-0.773c-11.443-8.203-24.474-15.611-38.264-21.6l-1.375-0.532c-30.44-12.282-65.738-19.408-102.701-19.408-19.059 0-37.675 1.894-55.671 5.505l1.799-0.301c28.312 45.322 67.777 81.288 114.633 104.633l1.641 0.74c13.106 6.033 28.38 10.952 44.317 14.002l1.268 0.202c-16.432 3.055-30.943 7.402-44.757 13.094l1.485-0.542c-26.144 12.212-48.658 27.010-68.711 44.55l0.335-0.287h-46.245c18.61-23.164 40.432-42.778 64.992-58.486l1.072-0.641c-45.527-26.719-82.109-64.254-106.94-109.188l-0.745-1.47c-44.28 28.043-80.325 65.249-106.208 109.16l-0.817 1.498c14.16 22.327 29.859 41.702 47.523 59.085l0.043 0.042h-26.426c-50.107-0.559-90.511-41.308-90.511-91.494 0-0.234 0.001-0.468 0.003-0.702v0.036-476.325c-0.002-0.198-0.002-0.432-0.002-0.666 0-50.186 40.404-90.935 90.458-91.494h815.95c50.069 0.371 90.514 41.046 90.514 91.167 0 0.349-0.002 0.698-0.006 1.046v-0.053 126.514c0.073 0.496 0.115 1.069 0.115 1.652s-0.042 1.155-0.123 1.716l0.008-0.064c0.317 2.43 0.498 5.24 0.498 8.093s-0.181 5.663-0.532 8.42l0.034-0.327c4.379 3.283 8.181 6.979 11.465 11.105l0.097 0.126c9.55 11.954 15.376 27.249 15.525 43.9v0.033zM202.157 428.841c-5.014 21.728-7.888 46.679-7.888 72.3 0 31.875 4.448 62.712 12.758 91.922l-0.575-2.364c25.843-9.276 55.661-14.638 86.731-14.638 21.496 0 42.392 2.567 62.399 7.41l-1.805-0.369c-6.763-23.316-10.653-50.099-10.653-77.791s3.89-54.475 11.153-79.833l-0.5 2.042c-21.963-5.412-47.177-8.517-73.117-8.517-27.889 0-54.939 3.589-80.715 10.33l2.214-0.492zM490.529 291.097c-45.615 30.007-82.519 69.659-108.477 116.245l-0.86 1.68c45.723 22.464 82.881 56.334 108.69 97.977l0.646 1.12c26.018-46.064 63.040-83.192 107.608-108.603l1.398-0.734c-27.54-44.398-64.198-80.633-107.574-106.881l-1.432-0.805zM707.881 417.941c-31.102 0.077-61.105 4.658-89.431 13.123l2.226-0.571c9.053 25.921 14.283 55.802 14.283 86.904 0 22.257-2.678 43.889-7.729 64.591l0.383-1.859c22.952-6.918 49.328-10.901 76.635-10.901s53.683 3.982 78.58 11.398l-1.945-0.497c2.408-9.994 4.613-22.575 6.12-35.37l0.156-1.626c-13.033-3.283-24.227-9.869-33.022-18.818l-0.010-0.010c-10.901-11.068-18.234-25.678-20.118-41.948l-0.031-0.333c-0.238-2.426-0.373-5.243-0.373-8.093s0.136-5.667 0.401-8.447l-0.027 0.354c-4.307-3.374-8.097-7.060-11.464-11.11l-0.098-0.121c-8.154-10.009-13.46-22.631-14.52-36.441l-0.014-0.225zM965.203 369.383c3.907-6.346 6.222-14.034 6.222-22.263 0-12.305-5.175-23.401-13.468-31.23l-0.021-0.019c-7.55-8.022-18.238-13.018-30.092-13.018-8.199 0-15.839 2.39-22.263 6.51l0.165-0.099c-4.592-18.759-21.258-32.461-41.125-32.461s-36.533 13.702-41.065 32.172l-0.060 0.29c-6.259-4.022-13.9-6.411-22.099-6.411-11.855 0-22.542 4.996-30.073 12.997l-0.020 0.021c-7.742 7.816-12.526 18.574-12.526 30.45 0 8.279 2.325 16.015 6.358 22.591l-0.108-0.189c-19.045 4.378-33.034 21.184-33.034 41.258 0 0.128 0.001 0.255 0.002 0.383v-0.020c-0.078 1.234-0.122 2.676-0.122 4.129s0.044 2.895 0.132 4.325l-0.010-0.196c3.467 16.661 16.371 29.565 32.758 32.984l0.275 0.048c-3.925 6.387-6.25 14.123-6.25 22.402 0 11.876 4.784 22.634 12.53 30.453l-0.003-0.003c7.873 9.487 19.667 15.484 32.861 15.484 7.981 0 15.45-2.194 21.836-6.013l-0.194 0.108c4.592 18.759 21.258 32.461 41.125 32.461s36.533-13.702 41.065-32.172l0.060-0.29c6.257 3.964 13.876 6.318 22.045 6.318 11.854 0 22.55-4.955 30.13-12.907l0.016-0.017c7.792-7.774 12.613-18.524 12.613-30.4 0-8.307-2.359-16.062-6.443-22.634l0.106 0.183c16.792-3.21 29.822-16.24 32.991-32.774l0.041-0.259v-15.525c-1.671-18.769-15.883-33.771-34.124-36.636l-0.23-0.030zM898.147 484.335l-80.268-109.337c-1.724-2.21-2.764-5.027-2.764-8.087 0-4.215 1.974-7.97 5.048-10.389l0.028-0.021c2.065-1.65 4.714-2.647 7.596-2.647 0.117 0 0.233 0.002 0.349 0.005h-0.017c0.122-0.004 0.266-0.007 0.411-0.007 4.115 0 7.78 1.93 10.138 4.934l0.021 0.028 80.929 109.337c1.592 2.228 2.546 5.008 2.546 8.010 0 4.363-2.014 8.255-5.162 10.798l-0.026 0.021c-2.225 1.667-5.032 2.67-8.074 2.67-4.369 0-8.255-2.069-10.731-5.281l-0.023-0.032zM831.092 448c0.098-0.002 0.214-0.003 0.33-0.003 10.399 0 18.828 8.43 18.828 18.828s-8.43 18.828-18.828 18.828c-10.398 0-18.827-8.428-18.828-18.825v0c0-0.001 0-0.002 0-0.003 0-10.282 8.243-18.64 18.481-18.825h0.017zM900.129 388.542c-10.216 0-18.498-8.282-18.498-18.498v0c0-10.216 8.282-18.498 18.498-18.498s18.498 8.282 18.498 18.498v0c0 10.216-8.282 18.498-18.498 18.498v0z" />
<glyph unicode="&#xe942;" glyph-name="printania-acclerateur-bon-reduc" d="M1027.012 448c-0.039 52.479-33.627 97.103-80.474 113.586l-0.844 0.259c8.302 15.926 13.171 34.781 13.171 54.772 0 66.534-53.937 120.471-120.471 120.471-20.933 0-40.619-5.339-57.77-14.729l0.627 0.315c-15.073 50.545-61.136 86.767-115.66 86.767-52.412 0-97.007-33.47-113.576-80.202l-0.26-0.843c-15.771 8.11-34.414 12.864-54.167 12.864-66.534 0-120.471-53.937-120.471-120.471 0-20.931 5.338-40.615 14.726-57.765l-0.315 0.628c-50.545-15.073-86.767-61.136-86.767-115.66 0-52.412 33.47-97.007 80.202-113.576l0.843-0.26c-8.302-15.926-13.171-34.781-13.171-54.772 0-66.534 53.937-120.471 120.471-120.471 20.933 0 40.619 5.339 57.77 14.729l-0.627-0.315c15.073-50.545 61.136-86.767 115.66-86.767 52.412 0 97.007 33.47 113.576 80.202l0.26 0.843c15.877-8.241 34.665-13.074 54.581-13.074 66.534 0 120.471 53.937 120.471 120.471 0 21.014-5.381 40.772-14.839 57.971l0.314-0.624c50.531 15.082 86.739 61.138 86.739 115.652v0zM545.129 628.706c33.267 0 60.235-26.968 60.235-60.235s-26.968-60.235-60.235-60.235c-33.267 0-60.235 26.968-60.235 60.235v0c0 33.267 26.968 60.235 60.235 60.235v0zM786.071 267.294c-33.267 0-60.235 26.968-60.235 60.235s26.968 60.235 60.235 60.235c33.267 0 60.235-26.968 60.235-60.235v0c0-33.267-26.968-60.235-60.235-60.235v0zM837.572 577.205l-301.176-301.176c-5.459-5.502-13.023-8.909-21.384-8.909s-15.925 3.406-21.382 8.907l-0.002 0.002c-5.412 5.444-8.758 12.948-8.758 21.233s3.346 15.789 8.759 21.234l301.175 301.175c5.459 5.502 13.023 8.909 21.384 8.909s15.925-3.406 21.382-8.907l0.002-0.002c5.412-5.444 8.758-12.948 8.758-21.233s-3.346-15.789-8.759-21.234l0.001 0.001zM271.059 628.706h-180.706c-16.634 0-30.118-13.484-30.118-30.118s13.484-30.118 30.118-30.118v0h180.706c16.634 0 30.118 13.484 30.118 30.118s-13.484 30.118-30.118 30.118v0zM271.059 327.529h-180.706c-16.634 0-30.118-13.484-30.118-30.118s13.484-30.118 30.118-30.118v0h180.706c16.634 0 30.118 13.484 30.118 30.118s-13.484 30.118-30.118 30.118v0zM240.941 448c0 16.634-13.484 30.118-30.118 30.118v0h-180.706c-16.634 0-30.118-13.484-30.118-30.118s13.484-30.118 30.118-30.118v0h180.706c16.634 0 30.118 13.484 30.118 30.118v0z" />
<glyph unicode="&#xe943;" glyph-name="printania-bon-reduc-10-euros" d="M1024 448c-0.055 74.345-47.638 137.562-114.004 160.913l-1.196 0.367c11.761 22.562 18.659 49.273 18.659 77.594 0 94.257-76.41 170.667-170.667 170.667-29.655 0-57.543-7.564-81.842-20.867l0.889 0.446c-21.131 71.952-86.558 123.594-164.046 123.594-74.501 0-137.852-47.736-161.136-114.29l-0.365-1.197c-22.493 11.675-49.109 18.521-77.324 18.521-94.257 0-170.667-76.41-170.667-170.667 0-29.77 7.622-57.761 21.022-82.125l-0.445 0.884c-71.606-21.353-122.92-86.61-122.92-163.852 0-74.25 47.416-137.426 113.62-160.899l1.194-0.369c-11.761-22.562-18.659-49.273-18.659-77.594 0-94.257 76.41-170.667 170.667-170.667 29.655 0 57.543 7.564 81.842 20.867l-0.889-0.446c21.131-71.952 86.558-123.594 164.046-123.594 74.501 0 137.852 47.736 161.136 114.29l0.365 1.197c22.493-11.675 49.109-18.521 77.324-18.521 94.257 0 170.667 76.41 170.667 170.667 0 29.77-7.622 57.761-21.022 82.125l0.445-0.884c71.765 21.214 123.249 86.507 123.307 163.833v0.007zM325.12 320h-58.88v215.893h-37.12l15.787 58.88h80.213zM576 402.347c-5.099-17.377-12.379-32.545-21.694-46.215l0.361 0.561c-9.046-12.589-20.442-22.894-33.617-30.447l-0.516-0.273c-12.306-6.916-26.999-11.019-42.645-11.093h-0.022c-0.010 0-0.022 0-0.034 0-15.657 0-30.353 4.114-43.067 11.32l0.434-0.226c-13.772 7.704-25.192 18.034-33.919 30.4l-0.214 0.32c-9.761 13.011-17.496 28.209-22.357 44.642l-0.257 1.011c-5.144 16.463-8.107 35.392-8.107 55.014 0 0.009 0 0.018 0 0.028v-0.001c0.031 19.786 2.991 38.869 8.47 56.854l-0.363-1.387c5.215 17.28 12.938 32.323 22.884 45.604l-0.271-0.378c8.941 12.686 20.362 23.016 33.622 30.456l0.511 0.264c12.279 6.979 26.975 11.093 42.633 11.093 0.012 0 0.024 0 0.036 0h-0.002c15.667-0.074 30.36-4.177 43.117-11.325l-0.45 0.232c13.692-7.826 25.087-18.131 33.918-30.406l0.215-0.314c9.164-12.987 16.707-27.986 21.862-44.055l0.325-1.172c4.877-16.27 7.683-34.966 7.683-54.317 0-0.404-0.001-0.808-0.004-1.211v0.062c-0.148-19.693-3.257-38.607-8.903-56.391l0.37 1.351zM794.88 537.173c-7.068 2.207-15.194 3.478-23.618 3.478-1.147 0-2.289-0.024-3.425-0.070l0.163 0.005c-8.817-0.19-17.148-2.054-24.759-5.285l0.439 0.165c-7.88-3.44-14.649-7.884-20.535-13.276l0.055 0.050c-6.449-5.499-11.851-11.989-16.026-19.273l-0.187-0.354h46.507v-39.253h-58.027v-12.8h58.453v-39.253h-46.080c4.65-7.557 10.168-14.025 16.536-19.539l0.104-0.088c5.937-5.262 12.86-9.581 20.431-12.631l0.476-0.169c7.068-2.938 15.275-4.659 23.88-4.693h0.014c0.885-0.037 1.923-0.058 2.966-0.058 8.082 0 15.868 1.27 23.169 3.62l-0.535-0.149v-60.587c-7.504-1.531-16.13-2.408-24.96-2.408s-17.456 0.877-25.794 2.548l0.834-0.139c-32.267 6.939-59.516 24.866-78.268 49.591l-0.239 0.329c-9.653 12.164-17.479 26.322-22.743 41.67l-0.297 0.996h-32v39.253h25.173v12.8h-25.173v39.253h32c5.454 16.328 13.139 30.487 22.855 42.99l-0.241-0.323c9.598 12.907 21.204 23.698 34.465 32.117l0.522 0.309c12.217 8.105 26.494 14.305 41.811 17.758l0.856 0.162c7.504 1.531 16.13 2.408 24.96 2.408s17.456-0.877 25.794-2.548l-0.834 0.139zM505.6 529.493c-7.608 7.137-17.873 11.521-29.161 11.521-0.098 0-0.196 0-0.294-0.001h0.015c-0.093 0.001-0.204 0.001-0.315 0.001-8.604 0-16.614-2.547-23.315-6.928l0.163 0.1c-7.002-4.96-12.63-11.406-16.502-18.907l-0.138-0.293c-4.319-7.637-7.586-16.514-9.307-25.931l-0.079-0.523c-2.172-9.434-3.417-20.268-3.417-31.392 0-14.195 2.027-27.917 5.807-40.892l-0.257 1.031c3.5-12.276 9.538-22.871 17.547-31.633l-0.054 0.060c7.661-7.393 18.104-11.947 29.61-11.947 0.090 0 0.18 0 0.27 0.001h-0.014c0.54-0.027 1.173-0.042 1.809-0.042 11.025 0 20.977 4.595 28.044 11.975l0.013 0.014c8.117 8.468 14.187 18.961 17.376 30.644l0.117 0.503c3.525 12.425 5.551 26.696 5.551 41.439 0 0.431-0.002 0.863-0.005 1.293v-0.066c0.004 0.411 0.007 0.897 0.007 1.383 0 14.717-2.185 28.924-6.249 42.314l0.269-1.030c-3.919 10.7-9.887 19.824-17.483 27.297l-0.010 0.010z" />
<glyph unicode="&#xe944;" d="M1024 576c-0.041 55.759-35.728 103.172-85.503 120.685l-0.897 0.275c8.681 16.809 13.771 36.688 13.771 57.755 0 70.692-57.308 128-128 128-22.152 0-42.99-5.627-61.162-15.53l0.671 0.335c-16.015 53.705-64.957 92.19-122.889 92.19-55.688 0-103.069-35.562-120.675-85.215l-0.277-0.895c-16.809 8.681-36.688 13.771-57.755 13.771-70.692 0-128-57.308-128-128 0-22.152 5.627-42.99 15.53-61.162l-0.335 0.671c-53.824-15.91-92.437-64.88-92.48-122.875v-0.005c-0.001-0.19-0.002-0.415-0.002-0.64 0-26 7.89-50.157 21.406-70.207l-0.284 0.448h8c0.148 0 0.324 0 0.5 0 67.199 0 128.962-23.274 177.669-62.2l-0.569 0.439 314.56 314.56c5.815 5.815 13.847 9.411 22.72 9.411 17.745 0 32.131-14.386 32.131-32.131 0-8.873-3.596-16.905-9.411-22.72l-314.56-314.56c38.875-48.238 62.4-110.267 62.4-177.791 0-0.158 0-0.316 0-0.474v0.024c0.076-1.148 0.119-2.489 0.119-3.84s-0.043-2.692-0.129-4.021l0.009 0.181c19.234-12.837 42.882-20.485 68.317-20.485 0.395 0 0.789 0.002 1.183 0.006h-0.060c55.759 0.041 103.172 35.728 120.685 85.503l0.275 0.897c16.809-8.681 36.688-13.771 57.755-13.771 70.692 0 128 57.308 128 128 0 22.152-5.627 42.99-15.53 61.162l0.335-0.671c53.824 15.91 92.437 64.88 92.48 122.875v0.005zM512 640c-35.346 0-64 28.654-64 64s28.654 64 64 64c35.346 0 64-28.654 64-64v0c0-35.346-28.654-64-64-64v0zM768 384c-35.346 0-64 28.654-64 64s28.654 64 64 64c35.346 0 64-28.654 64-64v0c0-35.346-28.654-64-64-64v0z" />
<glyph unicode="&#xe945;" d="M508.16 399.36c-13.69 16.852-28.588 31.749-44.88 44.999l-0.56 0.441c-48.138 38.487-109.901 61.76-177.1 61.76-0.176 0-0.352 0-0.527 0h-7.973c-153.941-4.516-277.013-130.388-277.013-285.005 0-157.467 127.653-285.12 285.12-285.12 154.726 0 280.667 123.247 285.004 276.925l0.009 0.4c0.076 1.148 0.119 2.489 0.119 3.84s-0.043 2.692-0.129 4.021l0.009-0.181c0 0.157 0 0.343 0 0.53 0 67.343-23.4 129.221-62.512 177.947l0.432-0.557zM308.16 98.24h-48v196.16h-32l13.12 48.32h67.2z" />
<glyph unicode="&#xe946;" glyph-name="printania-bon-redution" d="M1024 448c-0.055 74.345-47.638 137.562-114.004 160.913l-1.196 0.367c11.761 22.562 18.659 49.273 18.659 77.594 0 94.257-76.41 170.667-170.667 170.667-29.655 0-57.543-7.564-81.842-20.867l0.889 0.446c-21.131 71.952-86.558 123.594-164.046 123.594-74.501 0-137.852-47.736-161.136-114.29l-0.365-1.197c-22.493 11.675-49.109 18.521-77.324 18.521-94.257 0-170.667-76.41-170.667-170.667 0-29.77 7.622-57.761 21.022-82.125l-0.445 0.884c-71.606-21.353-122.92-86.61-122.92-163.852 0-74.25 47.416-137.426 113.62-160.899l1.194-0.369c-11.761-22.562-18.659-49.273-18.659-77.594 0-94.257 76.41-170.667 170.667-170.667 29.655 0 57.543 7.564 81.842 20.867l-0.889-0.446c21.131-71.952 86.558-123.594 164.046-123.594 74.501 0 137.852 47.736 161.136 114.29l0.365 1.197c22.493-11.675 49.109-18.521 77.324-18.521 94.257 0 170.667 76.41 170.667 170.667 0 29.77-7.622 57.761-21.022 82.125l0.445-0.884c71.765 21.214 123.249 86.507 123.307 163.833v0.007zM341.333 704c47.128 0 85.333-38.205 85.333-85.333s-38.205-85.333-85.333-85.333c-47.128 0-85.333 38.205-85.333 85.333v0c0 47.128 38.205 85.333 85.333 85.333v0zM682.667 192c-47.128 0-85.333 38.205-85.333 85.333s38.205 85.333 85.333 85.333c47.128 0 85.333-38.205 85.333-85.333v0c0-47.128-38.205-85.333-85.333-85.333v0zM755.627 631.040l-426.667-426.667c-7.712-7.668-18.343-12.407-30.080-12.407s-22.368 4.74-30.082 12.409l0.002-0.002c-7.668 7.712-12.407 18.343-12.407 30.080s4.74 22.368 12.409 30.082l426.665 426.665c7.733 7.795 18.45 12.621 30.293 12.621s22.56-4.826 30.291-12.618l0.003-0.003c7.541-7.69 12.195-18.234 12.195-29.865 0-11.844-4.826-22.561-12.619-30.292l-0.003-0.003z" />
</font>
</defs>
</svg>
